<?xml version="1.0" standalone="no"?>
<!DOCTYPE svg PUBLIC "-//W3C//DTD SVG 1.1//EN" "http://www.w3.org/Graphics/SVG/1.1/DTD/svg11.dtd">
<svg xmlns="http://www.w3.org/2000/svg">
<defs >
<font id="CormorantGaramond" horiz-adv-x="497" ><font-face
    font-family="Cormorant Garamond Light"
    units-per-em="1000"
    panose-1="0 0 4 0 0 0 0 0 0 0"
    ascent="924"
    descent="-287"
    alphabetic="0" />
<glyph unicode=" " glyph-name="space" horiz-adv-x="234" />
<glyph unicode="!" glyph-name="exclam" horiz-adv-x="219" d="M112 186T107 186T102 192L111 259Q128 379 138 463T150 621Q150 625 161 629T186 633Q200 633 211 629T221 621Q195 542 172 449T122 233L113 191Q112 186 107 186ZM59 -11T49 -1T38 28Q38 45 48
55T77 65Q96 65 106 55T116 28Q116 10 106 0T77 -11Q59 -11 49 -1Z" />
<glyph unicode="&quot;" glyph-name="quotedbl" horiz-adv-x="315" d="M134 609Q135 618 152 627T186 639T202 637L96 308Q95 305 91 305T86 306L134 609ZM275 609Q276 618 293 627T327 639T343 637L237 308Q236 305 232 305T227 306L275 609Z" />
<glyph unicode="#" glyph-name="numbersign" horiz-adv-x="433" d="M410 313T410 297Q410 276 406 276H334L280 115H340Q343 115 343 99Q343 77 339 77H267L214 -82Q214 -84 209 -84Q203 -84 195 -81T187 -75L238 77H116L63 -82Q63 -84 58 -84Q52 -84 44 -81T36
-75L87 77H28Q27 77 26 83T24 96Q24 103 25 109T28 115H99L153 276H95Q93 276 92 282T91 295Q91 302 92 307T95 313H166L222 482Q222 484 226 484Q232 484 241 480T249 473L195 313H317L373 482Q373 484 377 484Q383 484 392 480T400 473L346 313H407Q410 313 410
297ZM250 115L304 276H183L129 115H250Z" />
<glyph unicode="$" glyph-name="dollar" horiz-adv-x="367" d="M329 451T331 449T332 440L325 354Q325 351 321 351Q315 351 315 359Q315 396 295 427T241 465L206 264L218 256Q262 228 284 204T307 140Q307 84 266 40T158 -11L142 -103Q141 -109 133 -109Q129
-109 126 -107T124 -101L140 -12H135Q79 -12 40 23Q35 26 34 30T34 42L40 137Q40 142 45 142T50 136Q49 84 75 47T142 3L181 221L174 226Q132 254 110 278T88 340Q88 348 90 364Q99 415 137 445T226 479L241 563Q243 569 250 569Q254 569 256 567T258 560L244 480Q283
478 320 456Q329 451 331 449ZM133 368T133 362Q133 335 148 315T190 275L224 467Q190 467 166 443T135 380Q133 368 133 362ZM258 110T258 116Q258 145 242 167T197 210L160 2Q193 4 220 26T256 94Q258 110 258 116Z" />
<glyph unicode="%" glyph-name="percent" horiz-adv-x="517" d="M114 303T90 331T66 404Q66 444 84 480T134 538T200 560Q240 560 263 532T286 460Q286 445 283 430Q273 376 237 340T154 303Q114 303 90 331ZM58 -6Q54 -6 47 -1T42 6L471 550L473 551Q478 551
484 546T489 538L60 -5L58 -6ZM194 313T209 341T234 423Q240 455 240 478Q240 513 228 531T192 550Q160 550 143 520T117 436Q111 408 111 383Q111 313 163 313Q194 313 209 341ZM310 -5T286 23T261 96Q261 137 279 173T328 231T394 253Q434 253 457 225T481 152Q481
110 463 74T415 17T350 -5Q310 -5 286 23ZM390 6T405 34T429 116Q435 148 435 171Q435 206 423 224T387 242Q356 242 339 212T312 129Q306 101 306 76Q306 6 358 6Q390 6 405 34Z" />
<glyph unicode="&amp;" glyph-name="ampersand" horiz-adv-x="747" d="M735 375T741 369T747 346Q747 309 720 280T654 250Q627 250 581 271Q563 132 490 60T306 -12Q239 -12 187 20T105 107T75 225Q75 256 80 278Q92 331 126 374T206 441T296 465Q347 465 378
433Q441 503 441 557Q441 576 436 586T420 607Q407 620 407 633Q407 646 414 653T434 661Q454 661 468 642T482 591Q482 537 440 480T339 373T192 256L126 205Q137 151 169 110T245 45T338 22Q432 22 493 87T566 279L546 289Q508 309 482 319T433 330Q419 330 411
324T402 309Q402 301 405 293T409 281Q416 267 416 256Q416 247 411 241T394 234Q370 234 370 264Q370 289 385 311T426 347T478 361Q501 361 527 351T592 321Q629 302 650 294T691 285Q704 285 712 290T720 303Q720 311 711 327Q701 343 701 354Q701 375 724 375Q735
375 741 369ZM121 280T121 259Q121 240 124 220Q141 234 197 277Q287 348 333 389Q317 416 294 427T246 439Q206 439 173 402T126 310Q121 280 121 259Z" />
<glyph unicode="&apos;" glyph-name="quotesingle" horiz-adv-x="127" d="M111 609Q112 618 129 627T163 639T179 637L73 308Q72 305 68 305T63 306L111 609Z" />
<glyph unicode="(" glyph-name="parenleft" horiz-adv-x="278" d="M133 -76T102 1T71 178Q71 238 83 304Q108 446 176 559T340 725H341Q344 725 346 722T346 717Q263 646 212 544T136 304Q121 220 121 148Q121 -12 199 -109V-110Q199 -113 197 -115T192 -117Q133
-76 102 1Z" />
<glyph unicode=")" glyph-name="parenright" horiz-adv-x="278" d="M185 684T216 607T247 430Q247 370 235 304Q210 162 142 49T-22 -117H-23Q-26 -117 -28 -114T-28 -109Q55 -38 106 64T182 304Q197 388 197 460Q197 620 119 717V718Q119 721 121 723T126 725Q185
684 216 607Z" />
<glyph unicode="*" glyph-name="asterisk" horiz-adv-x="448" d="M275 657Q275 666 292 675T327 687T343 685L276 529Q275 526 270 526T265 529L275 657ZM124 559Q111 564 111 603Q111 617 113 626T118 633L247 520Q248 519 248 517Q248 515 247 513T243 511L124
559ZM291 503Q289 503 288 507T288 513L414 544Q423 546 436 533T458 504T461 488L291 503ZM167 382T156 382Q145 382 130 386T106 396T99 404L246 491L248 492Q250 492 252 489T254 485L171 387Q167 382 156 382ZM273 481V482Q273 484 276 487T281 488L350 378Q355
370 346 353T324 323T311 315L273 481Z" />
<glyph unicode="+" glyph-name="plus" horiz-adv-x="398" d="M366 208T367 203T369 190Q369 183 368 177T364 171H218V25Q218 23 211 22T196 20Q180 20 180 23V171H34Q32 171 31 177T29 191Q29 197 30 202T33 208H180V354Q180 356 186 357T199 359Q206 359 212
358T218 354V208H364Q366 208 367 203Z" />
<glyph unicode="," glyph-name="comma" horiz-adv-x="222" d="M93 63T107 47T121 2Q121 -44 94 -81T13 -159Q12 -160 10 -160Q7 -160 5 -156T6 -150Q44 -122 65 -94T91 -34Q92 -28 92 -18Q92 -5 89 3Q80 -8 62 -8Q45 -8 36 1T26 27Q26 44 37 53T70 63Q93 63 107 47Z" />
<glyph unicode="-" glyph-name="hyphen" horiz-adv-x="305" d="M30 167T29 175T27 192Q27 210 30 211L280 257Q284 258 284 237Q284 216 280 215L32 168Q30 167 29 175Z" />
<glyph unicode="." glyph-name="period" horiz-adv-x="195" d="M47 -11T37 -1T26 28Q26 45 36 55T65 65Q84 65 94 55T104 28Q104 10 94 0T65 -11Q47 -11 37 -1Z" />
<glyph unicode="/" glyph-name="slash" horiz-adv-x="305" d="M-9 -168T-13 -168Q-20 -168 -30 -164T-39 -156L345 730Q347 733 351 733Q359 733 368 728T374 718L-8 -166Q-9 -168 -13 -168Z" />
<glyph unicode="0" glyph-name="zero" horiz-adv-x="436" d="M114 -13T73 32T31 151Q31 175 35 196Q45 255 77 301T157 373T256 399Q324 399 364 356T405 240Q405 214 401 193Q391 134 359 87T281 14T182 -13Q114 -13 73 32ZM253 -1T291 48T344 181Q350 217 350
247Q350 316 321 351T246 387Q188 387 147 336T91 204Q86 179 86 146Q86 79 114 39T195 -1Q253 -1 291 48Z" />
<glyph unicode="1" glyph-name="one" horiz-adv-x="291" d="M12 0T12 6T16 12Q54 12 73 17T102 36T117 81L151 269Q157 302 157 319Q157 330 154 335T142 341Q126 341 71 315L69 314Q65 314 64 319T67 325L209 395Q212 397 215 395T216 391L161 81Q158 63 158
51Q158 27 175 20T240 12Q243 12 243 6T240 0Q210 0 193 1L129 2L64 1Q47 0 16 0Q12 0 12 6Z" />
<glyph unicode="2" glyph-name="two" horiz-adv-x="360" d="M101 85T156 135T238 227T266 311Q266 342 248 360T199 379Q126 379 75 258Q74 256 71 256Q68 256 65 258T63 262L120 409Q122 412 126 411T130 406Q127 397 127 392Q127 380 138 380Q147 380 168 387Q171
388 190 393T232 399Q270 399 292 378T314 320Q314 305 312 296Q302 246 251 192T75 46Q72 44 73 43T77 41Q180 41 221 44T280 62T311 111Q313 114 316 114Q319 114 321 112T323 108L294 9Q290 0 284 0H11Q6 0 4 5T6 14Q101 85 156 135Z" />
<glyph unicode="3" glyph-name="three" horiz-adv-x="339" d="M302 256T268 205T180 130Q229 125 253 94T278 18Q278 3 275 -12Q266 -60 229 -111T127 -206T-28 -276Q-32 -277 -33 -271T-33 -264Q85 -229 145 -159T218 -15Q221 2 221 18Q221 58 202 83T138 109Q122
109 92 102Q89 101 87 108T88 116Q164 136 200 172T248 271Q252 295 252 306Q252 340 235 359T184 379Q144 379 112 350T54 257Q53 256 51 256Q48 256 45 258T42 262L102 408Q103 409 105 409Q108 409 110 407T112 402Q108 394 108 387Q108 377 120 377Q130 377
149 385Q169 392 184 395T215 399Q257 399 279 374T302 309Q302 256 268 205Z" />
<glyph unicode="4" glyph-name="four" horiz-adv-x="421" d="M364 43T360 22T352 1Q325 3 273 5L244 -158Q242 -169 235 -172L204 -188L198 -190Q194 -190 195 -182L228 6Q164 8 -13 8Q-17 8 -18 12T-16 20L329 396Q331 398 334 398Q337 398 340 397T342 392L279
41Q304 41 360 43Q364 43 360 22ZM118 37T234 39L283 315L30 44Q25 37 34 37Q118 37 234 39Z" />
<glyph unicode="5" glyph-name="five" horiz-adv-x="374" d="M351 425T352 425Q355 425 357 423T359 419L330 357Q324 345 319 342T301 339L130 335Q119 335 113 320L72 196Q181 195 233 156T285 47Q285 29 282 9Q266 -75 196 -139T-23 -275H-24Q-28 -275 -30
-271T-28 -264Q98 -203 156 -141T226 -8Q229 12 229 29Q229 95 185 131T54 167Q50 167 48 170T48 179L108 357Q110 364 112 365T122 368Q237 383 277 389T329 401T349 423Q351 425 352 425Z" />
<glyph unicode="6" glyph-name="six" horiz-adv-x="419" d="M120 -13T79 28T37 144Q37 176 44 208Q61 301 115 391T254 552T442 661Q446 662 447 657T446 649Q351 606 278 537T159 386T99 226Q92 194 92 160Q92 90 125 48T220 5Q261 5 288 34T325 116Q329 146
329 158Q329 204 310 230T251 257Q226 257 202 245T146 206L144 205Q141 205 139 208T138 213Q201 282 282 282Q334 282 359 252T384 174Q384 159 381 142Q374 100 347 65T278 8T191 -13Q120 -13 79 28Z" />
<glyph unicode="7" glyph-name="seven" horiz-adv-x="386" d="M3 -275Q0 -275 -1 -273T-1 -268L346 338Q352 345 344 345Q210 345 157 341T83 323T48 276Q48 274 44 274Q41 274 38 276T36 280L90 415Q90 417 93 417Q96 417 99 415T102 412Q99 403 99 398Q99 391
107 389T139 386H378Q382 386 384 382T384 373L80 -220Q71 -237 56 -244L4 -275H3Z" />
<glyph unicode="8" glyph-name="eight" horiz-adv-x="440" d="M348 306T377 273T406 189Q406 171 404 161Q395 112 364 72T287 10T193 -13Q143 -13 107 5T51 55T32 123Q32 190 85 250T206 340Q173 364 156 386T138 438Q138 444 140 456Q146 494 170 520T227 560T292
574Q326 574 351 560T389 523T402 477Q402 470 400 460Q394 433 365 401T292 343Q348 306 377 273ZM186 430T210 405T284 348Q320 377 337 406T354 470Q354 508 332 533T271 559Q234 559 210 535T186 466Q186 430 210 405ZM354 150T354 165Q354 203 338 231T298
277T235 322L217 333Q166 308 133 267T91 175Q88 159 88 142Q88 84 124 44T221 4Q268 4 305 38T351 132Q354 150 354 165Z" />
<glyph unicode="9" glyph-name="nine" horiz-adv-x="419" d="M-27 -276T-29 -270T-27 -263Q67 -220 139 -151T256 -1T319 160Q326 189 326 221Q326 290 293 335T199 381Q160 381 132 357T94 282Q90 265 90 244Q90 195 115 162T180 129Q203 129 223 141T271 179Q272
180 274 180Q277 180 279 178T281 173Q253 139 219 122T150 104Q94 104 65 142T35 230Q35 275 62 314T133 376T228 399Q299 399 339 355T379 234Q379 203 374 178Q358 85 304 -5T165 -166T-23 -275Q-27 -276 -29 -270Z" />
<glyph unicode=":" glyph-name="colon" horiz-adv-x="195" d="M84 270T74 280T63 309Q63 326 73 336T102 346Q121 346 131 336T141 309Q141 291 131 281T102 270Q84 270 74 280ZM47 -11T37 -1T26 28Q26 45 36 55T65 65Q84 65 94 55T104 28Q104 10 94 0T65 -11Q47
-11 37 -1Z" />
<glyph unicode=";" glyph-name="semicolon" horiz-adv-x="222" d="M121 346T131 336T141 309Q141 291 131 281T102 270Q84 270 74 280T63 309Q63 326 73 336T102 346Q121 346 131 336ZM93 63T107 47T121 2Q121 -44 94 -81T13 -159Q12 -160 10 -160Q7 -160 5 -156T6
-150Q44 -122 65 -94T91 -34Q92 -28 92 -18Q92 -5 89 3Q80 -8 62 -8Q45 -8 36 1T26 27Q26 44 37 53T70 63Q93 63 107 47Z" />
<glyph unicode="&lt;" glyph-name="less" horiz-adv-x="407" d="M373 356T375 352T377 339Q377 320 370 316L77 191V190L370 64Q377 61 377 41Q377 22 370 25L36 173Q31 176 31 190Q31 205 36 207L370 354Q373 356 375 352Z" />
<glyph unicode="=" glyph-name="equal" horiz-adv-x="468" d="M32 241T31 247T29 261Q29 267 30 272T33 278H434Q436 278 437 273T439 260Q439 253 438 247T434 241H34Q32 241 31 247ZM32 101T31 107T29 121Q29 127 30 132T33 138H434Q436 138 437 133T439 120Q439
113 438 107T434 101H34Q32 101 31 107Z" />
<glyph unicode="&gt;" glyph-name="greater" horiz-adv-x="407" d="M34 24T32 28T30 40Q30 48 32 55T37 63L330 188V189L37 315Q34 316 32 323T30 338Q30 346 32 351T37 354L371 206Q376 204 376 189Q376 175 371 172L37 25Q34 24 32 28Z" />
<glyph unicode="?" glyph-name="question" horiz-adv-x="295" d="M131 220T131 256Q131 284 135 310Q140 341 156 361T204 407Q236 433 255 456T281 517Q284 531 284 543Q284 576 266 594T215 613Q186 613 174 600T153 565Q147 548 139 538T117 527Q104 527 98
536T94 558Q98 585 136 605T222 625Q272 625 302 601T333 532Q333 519 330 505Q322 465 300 439T257 395T230 372Q191 338 174 311T151 248Q147 232 147 191Q147 187 142 187T137 191Q131 220 131 256ZM91 -11T81 -1T70 28Q70 45 80 55T109 65Q128 65 138 55T148
28Q148 10 138 0T109 -11Q91 -11 81 -1Z" />
<glyph unicode="@" glyph-name="at" horiz-adv-x="717" d="M440 50T427 66T414 111Q414 118 416 136L428 199Q393 131 349 90T267 48Q245 48 231 62T217 107Q217 119 218 125Q226 179 259 232T335 320T418 354Q448 354 464 335Q475 346 478 361Q480 363 486 363Q498
363 496 360L455 136Q451 112 451 104Q451 86 459 77T488 68Q517 68 545 88T591 147T609 236Q609 299 577 352T488 437T364 468Q286 468 230 432T144 335T115 198Q115 120 150 61T247 -32T391 -65Q439 -65 474 -56T557 -20H558Q560 -20 562 -23T563 -28Q477 -95
360 -95Q280 -95 216 -63T114 31T76 175Q76 267 120 339T237 451T394 491Q468 491 524 461T610 378T641 264Q641 209 617 160T553 80T467 50Q440 50 427 66ZM316 81T348 109T405 181T441 269Q443 279 443 285Q443 305 431 318T396 331Q371 331 342 307T291 241T261
153Q258 135 258 122Q258 81 288 81Q316 81 348 109Z" />
<glyph unicode="A" glyph-name="A" horiz-adv-x="599" d="M565 12T565 6T561 0Q546 0 516 2Q482 4 462 4Q443 4 411 2Q381 0 367 0Q364 0 364 6T367 12Q407 12 421 21T436 57Q436 64 434 84L404 287H213L129 133Q96 74 96 46Q96 26 111 19T158 12Q162 12 162 6T157
0Q146 0 114 2Q78 4 58 4Q37 4 9 2Q-19 0 -34 0Q-38 0 -38 6T-34 12Q32 12 94 120L382 635Q384 638 389 638Q398 638 400 633L483 84Q487 54 493 40T515 19T561 12Q565 12 565 6ZM223 305H401L363 559L223 305Z" />
<glyph unicode="B" glyph-name="B" horiz-adv-x="511" d="M390 349T427 311T465 215Q465 199 462 181Q453 131 422 89T344 21T246 -4Q215 -4 180 -1Q168 0 151 1T113 2L52 1Q36 0 9 0Q6 0 6 6T9 12Q44 12 62 17T90 37T104 82L186 545Q189 563 189 574Q189 598
174 605T118 613Q114 613 114 619T118 625L163 624Q201 622 221 622Q239 622 254 623T280 625Q307 628 327 628Q397 628 431 600T465 524Q465 513 461 491Q450 442 415 407T325 353Q390 349 427 311ZM199 352L240 351Q316 351 359 389T413 491Q416 508 416 523Q416
565 390 590T306 615Q280 615 268 611T247 591T232 540L199 352ZM409 184T409 200Q409 261 373 296T270 332Q235 333 195 330L151 80Q148 67 148 56Q148 31 166 22T234 12Q308 12 351 53T406 164Q409 184 409 200Z" />
<glyph unicode="C" glyph-name="C" horiz-adv-x="585" d="M185 -13T123 60T61 244Q61 275 68 319Q84 410 140 482T274 595T433 636Q475 636 514 626T577 599Q583 594 584 590T585 575L577 470Q576 466 571 466T566 470Q561 547 517 581T396 615Q330 615 274 582T181
487T129 346Q121 300 121 263Q121 187 146 127T216 33T322 -1Q382 -1 436 37T530 149Q532 151 533 151Q536 151 538 149T540 145L510 39Q506 26 504 22T492 15Q404 -13 316 -13Q185 -13 123 60Z" />
<glyph unicode="D" glyph-name="D" horiz-adv-x="606" d="M207 -4T177 -1Q165 0 148 1T110 2L50 1Q36 0 11 0Q8 0 8 6T11 12Q44 12 60 17T85 36T99 81L181 544Q185 570 185 576Q185 598 171 605T118 613Q116 613 116 619T118 625L159 624Q197 622 219 622Q250
622 281 625Q319 627 331 627Q410 627 468 596T558 509T589 382Q589 348 584 323Q567 226 514 152T386 37T232 -4Q207 -4 177 -1ZM297 9T358 43T462 143T522 301Q529 340 529 381Q529 485 479 549T337 614Q299 614 279 609T246 589T228 542L149 92Q145 68 145 61Q145
34 163 22T226 9Q297 9 358 43Z" />
<glyph unicode="E" glyph-name="E" horiz-adv-x="510" d="M511 625T509 616L500 557Q497 542 495 526T490 494Q489 490 483 491T478 495Q481 513 481 529Q481 567 464 589T416 611H317Q284 611 269 606T245 587T232 543L195 335H343Q381 335 398 350T421 404Q421
407 427 407Q429 407 431 406T433 402Q428 372 425 360L419 325L413 286L405 234Q404 230 398 230T393 235Q397 261 397 268Q397 294 383 305T336 316H192L151 85Q148 67 148 55Q148 33 161 26T213 18H344Q377 18 407 54T454 147Q455 150 460 149T465 145Q448 91
435 15Q433 7 430 4T419 0H15Q13 0 13 6T15 12Q49 12 65 17T89 36T103 81L185 544Q188 562 188 575Q188 598 174 605T122 613Q119 613 119 619T122 625H503Q511 625 509 616Z" />
<glyph unicode="F" glyph-name="F" horiz-adv-x="483" d="M509 625T506 616L488 494Q487 490 481 491T476 495Q479 513 479 528Q479 566 462 588T414 611H315Q282 611 266 606T243 587T229 543L191 323H329Q367 323 384 338T407 392Q408 396 414 396T419 391Q411
343 410 340L405 313Q400 287 395 250L391 222Q390 218 384 218T379 223Q382 241 382 255Q382 282 369 293T322 304H187L149 85Q145 61 145 53Q145 29 166 21T247 12Q249 12 249 6T247 0Q212 0 192 1L110 2L54 1Q39 0 13 0Q10 0 10 6T13 12Q46 12 62 17T87 36T101
81L182 544Q186 561 186 576Q186 597 172 605T119 613Q117 613 117 619T119 625H501Q509 625 506 616Z" />
<glyph unicode="G" glyph-name="G" horiz-adv-x="630" d="M245 -12T186 20T95 108T64 239Q64 272 70 308Q87 403 145 477T287 594T468 636Q509 636 544 626T601 598Q607 592 607 585L606 575L598 470Q597 466 592 466T586 470Q583 541 543 578T429 615Q312 615
234 542T132 344Q124 298 124 261Q124 184 152 126T233 37T354 5Q400 5 426 14T468 49T492 126Q500 169 500 189Q500 208 493 217T467 230T414 233Q412 233 411 235T409 241Q409 244 410 246T414 249Q477 244 518 244Q557 244 600 247Q604 247 604 240T600 233Q578
234 568 227T550 196T533 116Q526 72 526 54T524 28Q523 22 521 21T512 16Q409 -12 330 -12Q245 -12 186 20Z" />
<glyph unicode="H" glyph-name="H" horiz-adv-x="670" d="M702 625T702 619T699 613Q666 613 650 608T626 588T612 544L530 81Q527 63 527 50Q527 27 541 20T594 12Q597 12 597 6T594 0Q568 0 553 1L496 2L437 1Q422 0 395 0Q393 0 393 6T395 12Q429 12 445 17T470
36T483 81L524 316H188L146 81Q142 55 142 49Q142 27 156 20T209 12Q212 12 212 6T209 0Q183 0 168 1L108 2L50 1Q36 0 11 0Q8 0 8 6T11 12Q44 12 60 17T85 36T99 81L181 544Q184 562 184 575Q184 598 170 605T118 613Q116 613 116 619T118 625L158 624Q194 622
215 622Q237 622 275 624L316 625Q318 625 318 619T316 613Q283 613 267 607T242 587T228 542L191 335H528L564 542Q568 568 568 575Q568 597 554 605T502 613Q499 613 499 619T502 625L542 624Q578 622 600 622Q622 622 658 624L699 625Q702 625 702 619Z" />
<glyph unicode="I" glyph-name="I" horiz-adv-x="301" d="M16 0T16 6T19 12Q52 12 68 17T93 36T106 81L188 544Q192 568 192 575Q192 598 178 605T124 613Q121 613 121 619T124 625L165 624Q201 622 222 622Q249 622 285 624L324 625Q326 625 326 619T324 613Q291
613 275 607T250 587T236 542L154 81Q151 62 151 50Q151 27 165 20T219 12Q221 12 221 6T219 0Q194 0 179 1L118 2L61 1Q46 0 19 0Q16 0 16 6Z" />
<glyph unicode="J" glyph-name="J" horiz-adv-x="271" d="M-20 -193Q-22 -193 -24 -189T-25 -182Q20 -155 46 -101T89 40L178 544Q181 562 181 574Q181 597 167 605T113 613Q111 613 111 619T113 625L154 624Q190 622 212 622Q239 622 275 624L313 625Q316 625
316 619T313 613Q280 613 264 607T239 587T226 542L142 67Q127 -12 108 -60T60 -138T-19 -193H-20Z" />
<glyph unicode="K" glyph-name="K" horiz-adv-x="587" d="M612 625T612 619T609 613Q574 613 535 598T456 544L263 375L364 199Q416 109 444 70T491 22T540 12Q543 12 543 6T540 0H457Q426 0 418 4T374 74T335 145L223 340L186 309L146 81Q140 45 140 39Q140 23
152 18T198 12Q200 12 200 6T198 0Q174 0 161 1L108 2L50 1Q36 0 11 0Q8 0 8 6T11 12Q44 12 60 17T85 36T99 81L181 544Q184 562 184 575Q184 598 170 605T118 613Q116 613 116 619T118 625L158 624Q194 622 215 622Q237 622 275 624L316 625Q318 625 318 619T316
613Q283 613 267 607T242 587T228 542L190 330L437 550Q475 586 475 599Q475 607 464 610T428 613Q426 613 426 619T428 625L463 624Q495 622 523 622Q549 622 579 624L609 625Q612 625 612 619Z" />
<glyph unicode="L" glyph-name="L" horiz-adv-x="494" d="M9 0T9 6T12 12Q45 12 61 17T86 36T99 81L181 544Q184 562 184 575Q184 598 170 605T118 613Q116 613 116 619T118 625L158 624Q194 622 215 622Q237 622 275 624L316 625Q318 625 318 619T316 613Q283
613 267 608T242 588T228 543L147 85Q144 67 144 55Q144 33 157 26T209 18H329Q380 18 411 52T461 147Q461 149 465 149Q468 149 471 148T473 145Q454 84 442 15Q440 7 437 4T426 0H12Q9 0 9 6Z" />
<glyph unicode="M" glyph-name="M" horiz-adv-x="730" d="M766 625T766 619T764 613Q719 613 698 600T670 546L601 81Q598 63 598 52Q598 28 612 20T665 12Q668 12 668 6T665 0Q641 0 626 1L566 2L508 1Q493 0 467 0Q464 0 464 6T467 12Q501 12 517 17T542 36T554
81L625 556L329 7Q327 3 322 3Q317 3 315 8L202 542L200 550L120 104Q116 83 116 63Q116 35 127 24T167 12Q170 12 170 6T167 0Q148 0 137 1L94 2L53 1Q41 0 19 0Q16 0 16 6T19 12Q55 12 73 32T102 104L189 579Q169 613 127 613Q125 613 125 619T127 625L157 624Q166
623 180 623Q193 623 201 624T214 625Q225 625 231 615T244 573L350 81L630 600Q637 611 645 618T661 625Q666 625 675 624T698 623L737 624Q746 625 764 625Q766 625 766 619Z" />
<glyph unicode="N" glyph-name="N" horiz-adv-x="650" d="M683 625T683 619T681 613Q645 613 626 592T598 520L504 -11Q503 -14 499 -14T492 -11L207 543L196 563L117 104Q113 81 113 62Q113 35 125 24T164 12Q166 12 166 6T164 0Q144 0 134 1L90 2L49 1Q37 0
15 0Q13 0 13 6T15 12Q51 12 70 33T98 104L182 582Q157 613 124 613Q121 613 121 619T124 625L156 624Q166 623 184 623Q198 623 207 624T222 625Q228 625 231 621T238 606Q239 603 242 593T251 573L502 80L579 520Q583 543 583 562Q583 590 571 601T532 613Q530
613 530 619T532 625L562 624Q588 622 606 622Q621 622 647 624L681 625Q683 625 683 619Z" />
<glyph unicode="O" glyph-name="O" horiz-adv-x="650" d="M217 -12T167 20T91 110T65 240Q65 276 71 313Q87 406 137 479T258 594T409 636Q480 636 530 604T607 515T633 386Q633 357 626 313Q609 220 558 146T435 30T285 -12Q217 -12 167 20ZM417 14T481 77T571
260Q582 313 582 359Q582 433 556 490T482 580T368 612Q275 612 211 546T125 366Q116 318 116 274Q116 200 140 141T213 48T327 14Q417 14 481 77Z" />
<glyph unicode="P" glyph-name="P" horiz-adv-x="496" d="M9 0T9 6T12 12Q45 12 61 17T86 36T101 81L182 544Q186 561 186 576Q186 598 172 605T119 613Q117 613 117 619T119 625L159 624Q195 622 216 622Q227 622 263 624Q309 628 340 628Q411 628 457 594T503
492Q503 472 499 453Q488 390 448 347T355 283T253 262Q228 262 212 267Q210 267 210 270Q210 273 212 277T216 280Q229 276 246 276Q288 276 328 293T399 346T440 433Q444 453 444 476Q444 540 408 577T318 615Q282 615 267 612T244 593T228 542L147 81Q143 55
143 49Q143 27 157 20T211 12Q213 12 213 6T211 0Q185 0 170 1L109 2L52 1Q37 0 12 0Q9 0 9 6Z" />
<glyph unicode="Q" glyph-name="Q" horiz-adv-x="650" d="M680 -172T681 -177T681 -184Q632 -195 595 -195Q538 -195 476 -143T370 1Q325 -12 285 -12Q217 -12 167 20T91 110T65 240Q65 276 71 313Q87 406 137 479T258 594T409 636Q480 636 530 604T607 515T633
386Q633 357 626 313Q609 216 555 140T425 24Q450 -34 487 -79T564 -151T641 -177Q659 -177 677 -173Q680 -172 681 -177ZM116 318T116 274Q116 200 140 141T213 48T327 14Q417 14 481 77T571 260Q582 313 582 359Q582 433 556 490T482 580T368 612Q275 612 211
546T125 366Q116 318 116 274Z" />
<glyph unicode="R" glyph-name="R" horiz-adv-x="608" d="M586 12T586 6T582 0H485Q461 0 411 83T295 314Q263 306 235 306Q213 306 197 309L157 81Q153 62 153 47Q153 26 167 19T222 12Q226 12 226 6T223 0Q195 0 180 1L119 2L59 1Q42 0 14 0Q10 0 10 6T14 12Q49
12 67 17T95 37T110 81L192 544Q196 570 196 575Q196 598 181 605T125 613Q121 613 121 619T125 625L168 624Q206 622 228 622Q244 622 258 623T284 625Q312 628 335 628Q403 628 437 602T472 525Q472 515 468 491Q458 438 422 395T335 328Q392 207 433 140T509
42T582 12Q586 12 586 6ZM227 329T254 329Q325 329 361 358T412 457Q418 489 418 513Q418 615 311 615Q285 615 273 611T253 592T239 542L202 332Q227 329 254 329Z" />
<glyph unicode="S" glyph-name="S" horiz-adv-x="460" d="M148 -12T118 -5T56 22Q52 25 51 30T50 41L60 171Q60 176 65 176T71 171Q68 103 101 53T205 2Q255 2 295 31T346 122Q349 139 349 154Q349 189 334 215T297 260T237 304Q201 328 179 346T143 391T128 452Q128
466 131 481Q140 531 170 566T242 618T329 636Q380 636 434 612Q447 605 446 595L434 489Q434 485 428 485T422 489Q422 545 399 584T315 623Q270 623 240 601T196 546T181 478Q181 446 196 422T232 380T291 338Q330 313 352 294T391 248T407 185Q407 167 405 157Q392
84 333 36T181 -12Q148 -12 118 -5Z" />
<glyph unicode="T" glyph-name="T" horiz-adv-x="553" d="M146 0T146 6T149 12Q182 12 198 17T223 36T236 81L318 544Q321 562 321 574Q321 595 309 602T262 609H235Q192 609 166 596T122 554T89 469Q89 467 85 467Q82 467 79 468T77 471Q85 495 99 554T120 647Q121
650 127 650T132 646Q129 625 171 625Q245 622 354 622Q405 622 467 624L530 625Q560 625 575 630T596 650Q598 653 603 653T607 648Q599 622 587 565T568 471Q567 468 562 468T557 473Q563 509 563 534Q563 576 542 592T468 609H441Q413 609 399 604T377 584T365
542L284 81Q281 62 281 50Q281 27 295 20T349 12Q351 12 351 6T349 0Q324 0 309 1L248 2L190 1Q175 0 149 0Q146 0 146 6Z" />
<glyph unicode="U" glyph-name="U" horiz-adv-x="618" d="M567 539T567 552Q567 583 552 598T504 613Q500 613 500 619T504 625L543 624Q573 622 591 622Q608 622 636 624L671 625Q675 625 675 619T671 613Q634 613 613 590T582 519L532 233Q511 116 442 52T275
-13Q190 -13 143 34T96 166Q96 195 102 226L158 545Q161 563 161 575Q161 598 147 605T91 613Q88 613 88 619T91 625L136 624Q172 622 194 622Q221 622 259 624L298 625Q302 625 302 619T298 613Q263 613 245 607T219 586T205 540L154 258Q147 220 147 185Q147
102 186 59T296 16Q379 16 437 74T512 234L564 522Q567 539 567 552Z" />
<glyph unicode="V" glyph-name="V" horiz-adv-x="591" d="M659 625T659 619T655 613Q627 613 605 599T561 544L280 1Q277 -3 269 -3Q261 -3 260 1L146 542Q139 581 125 597T84 613Q82 613 82 619T84 625L119 624Q145 622 156 622Q181 622 215 624L251 625Q255
625 255 619T251 613Q222 613 207 604T192 572Q192 559 194 552L298 76L544 550Q556 576 556 585Q556 600 542 606T495 613Q492 613 492 619T495 625L527 624Q557 622 579 622Q595 622 619 624L655 625Q659 625 659 619Z" />
<glyph unicode="W" glyph-name="W" horiz-adv-x="821" d="M888 625T888 619T884 613Q855 613 833 599T791 544L508 1Q507 -3 498 -3Q490 -3 489 1L428 287L280 1Q277 -3 269 -3Q261 -3 260 1L146 542Q139 581 125 597T84 613Q81 613 81 619T84 625L119 624Q145
622 156 622Q181 622 215 624L251 625Q255 625 255 619T251 613Q222 613 207 604T192 572Q192 559 194 552L299 70L423 312L374 542Q366 582 353 597T312 613Q309 613 309 619T312 625L348 624Q372 622 385 622Q404 622 426 624L450 625Q455 625 455 619T450 613Q431
613 424 609T417 592Q417 579 423 552L461 375L551 550Q566 579 566 592Q566 613 530 613Q526 613 526 619T530 625L552 624Q570 622 585 622Q602 622 624 624L661 625Q664 625 664 619T661 613Q632 613 610 599T567 544L467 350L527 70L774 550Q786 573 786 585Q786
600 771 606T723 613Q719 613 719 619T723 625L758 624Q786 622 808 622Q824 622 848 624L884 625Q888 625 888 619Z" />
<glyph unicode="X" glyph-name="X" horiz-adv-x="579" d="M620 625T620 619T615 613Q559 613 485 523L335 334L432 83Q446 44 467 28T526 12Q530 12 530 6T526 0Q504 0 491 1L444 2L379 1Q363 0 337 0Q333 0 333 6T337 12Q364 12 376 17T389 34Q389 37 385 51L292
290L137 92Q109 56 109 37Q109 12 153 12Q157 12 157 6T153 0Q128 0 116 1L58 2L24 1Q14 0 -8 0Q-12 0 -12 6T-8 12Q21 12 53 32T117 92L286 306L195 542Q180 581 161 597T111 613Q107 613 107 619T111 625L142 624Q164 622 173 622Q203 622 245 624L289 625Q293
625 293 619T289 613Q262 613 250 608T238 591Q238 582 242 573L329 348L465 524Q497 565 497 587Q497 613 455 613Q451 613 451 619T455 625L492 624Q522 622 550 622Q564 622 584 624L615 625Q620 625 620 619Z" />
<glyph unicode="Y" glyph-name="Y" horiz-adv-x="527" d="M603 625T603 619T599 613Q536 613 469 523L310 308L270 81Q266 55 266 49Q266 27 280 20T333 12Q337 12 337 6T333 0Q307 0 293 1L235 2L174 1Q160 0 135 0Q131 0 131 6T135 12Q168 12 185 17T210 37T223
81L261 301L159 542Q142 581 124 597T76 613Q72 613 72 619T76 625L106 624Q128 622 138 622Q164 622 206 624L253 625Q255 625 255 621Q255 618 254 616T250 613Q224 613 213 608T201 592Q201 585 206 573L308 327L449 524Q478 565 478 586Q478 613 437 613Q434
613 434 619T437 625L476 624Q508 622 532 622Q547 622 567 624L599 625Q603 625 603 619Z" />
<glyph unicode="Z" glyph-name="Z" horiz-adv-x="545" d="M323 0T26 0Q22 0 21 4T22 13L489 600Q494 605 494 606T487 608Q312 608 252 603T168 579T118 501Q116 497 111 498T108 504L170 655Q170 656 173 656Q176 656 179 655T181 651Q179 646 179 639Q179 630
188 628T226 625H554Q558 625 560 620T559 612L97 27Q93 22 93 21T99 19H338Q401 19 434 44T488 131Q488 134 492 134Q495 134 497 133T499 129L465 8Q465 5 463 2T456 -2Q323 0 26 0Z" />
<glyph unicode="[" glyph-name="bracketleft" horiz-adv-x="247" d="M32 -117T31 -115T32 -106L177 715Q178 722 179 723T186 725H306Q310 725 310 719T306 713Q269 713 250 707T221 687T207 642L88 -34Q84 -58 84 -65Q84 -88 100 -96T160 -105Q165 -105 165 -111T160
-117H37Q32 -117 31 -115Z" />
<glyph unicode="\" glyph-name="backslash" horiz-adv-x="305" d="M115 723Q114 727 121 730T136 733Q148 733 149 727L221 -159Q222 -163 215 -165T199 -168Q187 -168 187 -163L115 723Z" />
<glyph unicode="]" glyph-name="bracketright" horiz-adv-x="247" d="M255 725T256 723T255 714L110 -107Q109 -114 108 -115T101 -117H-19Q-23 -117 -23 -111T-19 -105Q18 -105 37 -99T66 -79T80 -34L199 642Q203 666 203 673Q203 696 187 704T127 713Q123 713
123 719T127 725H250Q255 725 256 723Z" />
<glyph unicode="^" glyph-name="asciicircum" horiz-adv-x="353" d="M95 374T93 374Q90 374 87 376T85 380L243 629Q246 634 254 634Q263 634 263 629L333 380Q333 378 329 376T323 377L241 557L96 375Q95 374 93 374Z" />
<glyph unicode="_" glyph-name="underscore" horiz-adv-x="363" d="M-9 -75T-10 -69T-12 -55Q-12 -48 -11 -43T-8 -37H311Q313 -37 314 -43T316 -56Q316 -63 315 -69T311 -75H-7Q-9 -75 -10 -69Z" />
<glyph unicode="`" glyph-name="grave" horiz-adv-x="166" d="M135 727Q134 732 145 731T169 725T181 716V476Q181 474 177 473T172 475L135 727Z" />
<glyph unicode="a" glyph-name="a" horiz-adv-x="432" d="M409 78T411 78Q414 78 416 75T416 69Q381 29 355 10T304 -9Q288 -9 281 0T274 32Q274 53 280 89L299 200Q252 104 193 46T80 -13Q20 -13 20 61Q20 69 22 91Q32 162 74 234T174 352T282 399Q301 399 318
392T346 371Q365 388 368 407Q369 410 375 409T380 406L322 89Q319 73 319 61Q319 28 338 28Q361 28 408 77Q409 78 411 78ZM146 30T189 68T266 165T313 283Q315 291 315 305Q315 333 299 350T253 367Q216 367 177 335T109 248T69 127Q66 106 66 89Q66 30 109 30Q146
30 189 68Z" />
<glyph unicode="b" glyph-name="b" horiz-adv-x="430" d="M369 399T391 371T413 296Q413 278 408 251Q392 169 348 109T248 18T145 -13Q102 -13 76 6T49 59Q49 63 51 75L156 627Q158 639 158 644Q158 670 135 670Q116 670 84 654H82Q78 654 77 659T80 665L202
725H204Q208 725 211 722T213 717L120 209Q154 292 212 345T331 399Q369 399 391 371ZM358 250T358 275Q358 314 343 336T294 359Q251 359 212 326T144 234T99 96Q98 91 98 83Q98 51 122 32T187 12Q221 12 254 37T314 109T352 220Q358 250 358 275Z" />
<glyph unicode="c" glyph-name="c" horiz-adv-x="345" d="M93 -13T62 32T30 142Q30 174 36 202Q49 263 82 307T160 375T248 399Q285 399 310 383T332 342Q331 330 324 322T304 313Q282 313 271 342Q267 356 253 367T215 379Q164 379 133 338T89 232Q82 192 82
166Q82 101 110 60T193 18Q226 18 251 31T304 67L306 68Q309 68 311 64T312 58Q231 -13 156 -13Q93 -13 62 32Z" />
<glyph unicode="d" glyph-name="d" horiz-adv-x="443" d="M332 89Q329 73 329 61Q329 28 350 28Q370 28 419 77Q421 79 422 79Q425 79 427 76T427 69Q391 29 365 10T315 -9Q298 -9 291 0T283 32Q283 55 290 89L310 194Q264 97 212 42T104 -13Q69 -13 47 10T24
84Q24 106 28 126Q41 199 82 261T180 361T295 399Q324 399 346 383L392 627Q394 639 394 644Q394 670 371 670Q352 670 320 654H318Q315 654 314 659T316 665L439 725H441Q444 725 447 722T449 717L332 89ZM178 30T223 81T298 200T328 306Q328 335 312 351T267
367Q197 367 145 314T75 163Q71 140 71 117Q71 74 87 52T132 30Q178 30 223 81Z" />
<glyph unicode="e" glyph-name="e" horiz-adv-x="339" d="M323 325T290 297T202 247T84 215Q79 190 79 159Q79 95 107 58T187 20Q245 20 290 53H292Q295 53 297 50T297 44Q226 -12 154 -12Q92 -12 60 28T28 132Q28 155 33 185Q42 235 75 285T156 367T258 399Q289
399 306 388T323 356Q323 325 290 297ZM165 372T133 332T87 229Q161 241 208 265T264 324Q266 329 266 338Q266 356 251 364T215 372Q165 372 133 332Z" />
<glyph unicode="f" glyph-name="f" horiz-adv-x="260" d="M350 726T368 711T385 675Q380 649 354 649Q343 649 338 656T325 678Q318 694 310 703T287 712Q206 712 167 439L158 376L235 380L263 382Q270 382 270 376Q270 368 258 355T236 343Q229 344 205 347T155
352L101 -21Q87 -118 70 -172T26 -251T-41 -275Q-72 -275 -86 -264T-98 -235Q-97 -223 -88 -215T-64 -207Q-51 -207 -45 -214T-34 -234Q-29 -246 -24 -251T-9 -257Q4 -257 12 -242T30 -182T53 -47L104 306L106 331Q106 351 95 356T47 361Q44 361 44 366Q44 368
45 370T48 373Q85 373 100 383T120 418Q140 541 164 606T224 699T318 726Q350 726 368 711Z" />
<glyph unicode="g" glyph-name="g" horiz-adv-x="377" d="M387 393T387 382Q387 371 383 359T374 349Q353 358 326 358Q317 358 297 356Q318 329 318 286Q318 269 313 246Q304 203 279 169T220 117T150 98Q137 98 125 101Q109 84 108 65Q105 39 128 20T199 -23Q255
-52 284 -76T313 -138Q313 -174 285 -207T209 -260T106 -281Q37 -281 -3 -252T-43 -179Q-43 -135 -7 -102T103 -26Q67 0 67 30Q67 37 68 41Q72 57 82 72T111 105Q82 116 66 143T50 206Q50 223 55 246Q67 309 114 350T220 392Q260 392 286 369Q337 393 382 393Q387
393 387 382ZM271 232T271 252Q271 302 252 338T195 375Q163 375 136 347T101 276Q97 259 97 237Q97 188 117 152T175 116Q207 116 233 142T268 214Q271 232 271 252ZM273 -137T245 -114T164 -62Q134 -47 113 -33Q77 -53 56 -67T20 -103T5 -153Q5 -197 46 -225T153
-254Q209 -254 241 -231T273 -172Q273 -137 245 -114Z" />
<glyph unicode="h" glyph-name="h" horiz-adv-x="443" d="M422 79T424 79Q427 79 429 76T428 69Q393 29 367 10T316 -9Q299 -9 292 0T285 33Q285 53 291 89L320 248Q326 281 326 305Q326 365 281 365Q247 365 211 322T142 198T89 6Q88 0 81 -4T63 -8Q42 -8 42
-2L46 19Q48 26 51 43T57 74L161 627Q163 641 163 645Q163 670 141 670Q122 670 90 654H88Q84 654 83 658T85 665L208 725H210Q214 725 217 722T219 717L119 170Q156 277 205 338T309 399Q341 399 356 382T372 326Q372 302 366 267L333 89Q330 73 330 61Q330 28
350 28Q373 28 420 77Q422 79 424 79Z" />
<glyph unicode="i" glyph-name="i" horiz-adv-x="247" d="M153 517T143 527T132 556Q132 573 142 583T172 593Q191 593 201 583T211 556Q211 537 201 527T172 517Q153 517 143 527ZM93 -9T85 0T77 34Q77 57 84 89L125 297Q128 314 128 325Q128 341 123 349T108
358Q96 358 77 346T36 311Q35 310 33 310Q30 310 28 313T28 319Q62 358 90 376T142 395Q159 395 166 386T174 354Q174 331 167 297L127 89Q124 73 124 60Q124 28 144 28Q156 28 175 40T215 75Q216 76 218 76Q222 76 224 73T223 67Q157 -9 110 -9Q93 -9 85 0Z" />
<glyph unicode="j" glyph-name="j" horiz-adv-x="237" d="M163 517T153 527T142 556Q142 573 152 583T182 593Q201 593 211 583T221 556Q221 537 211 527T182 517Q163 517 153 527ZM-50 -275T-64 -265T-78 -239Q-78 -224 -69 -216T-48 -207Q-38 -207 -34 -214T-25
-234Q-20 -248 -16 -254T-2 -261Q21 -261 36 -218T70 -64L132 297Q135 314 135 325Q135 358 115 358Q103 358 84 346T43 311Q42 310 40 310Q37 310 35 313T35 319Q69 358 97 376T150 395Q166 395 173 386T180 354Q180 333 174 297L116 -42Q100 -136 83 -185T42
-254T-23 -275Q-50 -275 -64 -265Z" />
<glyph unicode="k" glyph-name="k" horiz-adv-x="418" d="M403 76T405 76Q409 76 411 73T411 67Q344 -9 305 -9Q283 -9 267 5T228 58L170 160Q161 175 154 181T135 188Q132 188 122 186L89 6Q88 0 81 -4T63 -8Q42 -8 42 -2L46 19Q48 26 51 43T57 74L161 627Q163
641 163 645Q163 670 141 670Q122 670 90 654H88Q84 654 83 658T85 665L208 725H210Q214 725 217 722T219 717L143 301Q180 346 227 372T323 399Q351 399 363 385T375 351Q375 342 374 339Q367 304 321 270T199 209L267 90Q287 55 301 43T332 30Q360 30 402 75Q403
76 405 76ZM230 372T187 328T126 208L124 199Q220 222 261 248T313 324Q315 334 315 339Q315 354 307 363T284 372Q230 372 187 328Z" />
<glyph unicode="l" glyph-name="l" horiz-adv-x="235" d="M73 -9T65 1T57 34Q57 49 64 89L165 627Q167 641 167 645Q167 670 146 670Q128 670 96 654H94Q90 654 89 659T91 665L214 725H216Q220 725 223 722T225 717L108 89Q104 67 104 60Q104 45 110 37T125 28Q147
28 194 77Q196 79 198 79Q201 79 203 76T202 69Q167 29 141 10T90 -9Q73 -9 65 1Z" />
<glyph unicode="m" glyph-name="m" horiz-adv-x="674" d="M652 79T654 79Q657 79 659 76T658 69Q623 29 597 10T546 -9Q530 -9 523 0T516 32Q516 53 522 89L551 248Q556 276 556 304Q556 365 515 365Q482 365 446 322T379 198T327 6Q326 0 320 -4T302 -8Q289 -8
286 -7T282 -2L287 21L297 74L329 248Q333 276 333 302Q333 334 324 349T295 365Q263 365 227 322T160 198T108 6Q106 0 100 -4T82 -8Q69 -8 66 -7T62 -2Q62 1 72 47L76 68L118 297Q121 314 121 325Q121 358 101 358Q89 358 70 346T29 311Q28 310 26 310Q23 310
21 313T21 319Q87 395 136 395Q152 395 159 386T166 354Q166 333 160 297L138 172Q173 278 221 338T323 399Q352 399 366 382T381 328Q381 301 374 267L356 167Q392 275 441 337T543 399Q573 399 587 382T602 326Q602 302 596 267L564 89Q561 73 561 61Q561 28
580 28Q603 28 650 77Q652 79 654 79Z" />
<glyph unicode="n" glyph-name="n" horiz-adv-x="463" d="M442 79T443 79Q446 79 448 76T448 69Q413 29 387 10T336 -9Q319 -9 312 0T305 33Q305 53 311 89L340 248Q347 279 347 305Q347 365 301 365Q267 365 231 322T162 198T109 6Q108 0 101 -4T83 -8Q70 -8
66 -7T62 -2L66 19Q68 26 71 43T77 74L118 297Q121 314 121 325Q121 358 101 358Q89 358 70 346T29 311Q28 310 26 310Q23 310 21 313T21 319Q87 395 136 395Q152 395 159 386T166 354Q166 333 160 297L137 164Q173 274 223 336T329 399Q362 399 377 382T393 327Q393
307 386 267L353 89Q350 73 350 62Q350 28 371 28Q393 28 440 77Q442 79 443 79Z" />
<glyph unicode="o" glyph-name="o" horiz-adv-x="396" d="M95 -14T62 28T29 139Q29 169 34 193Q45 250 75 297T150 372T242 399Q303 399 336 357T370 248Q370 222 364 193Q352 132 319 85T242 12T153 -14Q95 -14 62 28ZM233 11T269 48T318 149Q323 177 323 203Q323
272 295 323T213 375Q167 375 130 337T80 236Q74 209 74 180Q74 111 104 61T188 11Q233 11 269 48Z" />
<glyph unicode="p" glyph-name="p" horiz-adv-x="407" d="M332 393T356 367T381 289Q381 273 378 253Q369 186 334 128T248 34T145 -1Q111 -1 83 3L51 -178Q48 -195 48 -205Q48 -224 57 -232T86 -241Q91 -241 111 -239H112Q115 -239 116 -244T113 -250L-55 -275Q-59
-276 -60 -270T-57 -263Q-33 -259 -22 -253T-6 -233T6 -185L90 288L48 255H47Q44 255 41 259T40 264Q76 296 94 310L108 386Q108 388 119 400T140 426T153 458Q153 461 158 461Q160 461 162 460T164 456L144 345Q222 393 285 393Q332 393 356 367ZM333 243T333
263Q333 308 315 334T250 360Q223 360 197 351T140 322L91 44Q125 27 171 27Q238 27 278 79T330 220Q333 243 333 263Z" />
<glyph unicode="q" glyph-name="q" horiz-adv-x="413" d="M276 -178Q273 -193 273 -204Q273 -223 282 -232T314 -241Q320 -241 336 -239H337Q340 -239 341 -244T338 -250L171 -275Q167 -276 166 -270T168 -263Q192 -259 203 -253T220 -233T232 -185L294 165Q256
81 203 34T98 -13Q65 -13 45 14T24 85Q24 97 25 103Q34 180 73 248T169 358T283 399Q302 399 319 392T347 371Q366 386 370 407Q371 410 376 409T381 406L276 -178ZM163 30T202 60T270 143T310 258Q314 288 314 298Q314 334 299 351T253 367Q186 365 136 305T71
139Q70 130 70 113Q70 30 122 30Q163 30 202 60Z" />
<glyph unicode="r" glyph-name="r" horiz-adv-x="336" d="M307 395T324 379T337 343Q331 319 308 319Q297 319 291 324T279 339Q276 344 272 348T261 353Q238 353 207 294T147 152T105 6Q104 0 98 -4T80 -8Q67 -8 64 -7T60 -2L65 21L75 74L106 249Q113 284 113
309Q113 358 87 358Q64 358 26 322L24 321Q22 321 20 324T18 330Q75 395 122 395Q140 395 149 382T159 337Q159 303 149 249L128 135Q163 242 206 318T287 395Q307 395 324 379Z" />
<glyph unicode="s" glyph-name="s" horiz-adv-x="298" d="M64 -11T38 5T12 44Q12 57 20 65T39 73Q46 73 50 68T62 51Q73 30 85 19T125 8Q155 8 173 24T195 74Q196 79 196 88Q196 117 180 137T131 186Q99 213 83 233T67 282Q67 287 69 299Q77 345 115 370T198 396Q229
396 251 383T274 353Q274 339 266 332T247 325Q238 325 232 329T216 345Q205 359 194 367T163 375Q139 375 123 362T107 319Q107 292 123 271T170 222Q202 193 219 171T236 118Q236 85 217 56T167 8T99 -11Q64 -11 38 5Z" />
<glyph unicode="t" glyph-name="t" horiz-adv-x="294" d="M296 382T294 374Q291 365 281 354T262 343Q257 343 222 347T153 353L108 102Q104 78 104 70Q104 45 116 33T153 21Q181 21 204 33T253 68H254Q257 68 260 65T261 60Q217 22 184 5T120 -12Q92 -12 74 2T56
48Q56 54 58 68L102 306Q106 325 106 339Q106 353 98 357T68 361Q65 361 65 366Q65 368 66 370T69 373Q101 373 124 393T154 447Q154 450 162 450Q172 450 170 447L157 375Q208 377 254 380L287 382Q296 382 294 374Z" />
<glyph unicode="u" glyph-name="u" horiz-adv-x="462" d="M434 76T436 76Q439 76 441 73T441 67Q407 28 379 10T326 -9Q310 -9 303 0T296 32Q296 53 302 89L325 222Q289 112 239 50T133 -13Q100 -13 84 4T68 58Q68 81 76 119L112 297Q115 314 115 325Q115 341
110 349T95 358Q73 358 26 309Q24 307 22 307Q19 307 17 310T18 317Q53 357 79 376T130 395Q146 395 154 386T162 354Q162 335 154 297L122 138Q115 106 115 80Q115 21 161 21Q195 21 231 64T300 188T353 380Q354 386 361 390T379 394Q400 394 400 388L396 367Q394
360 391 343T385 312L344 89Q341 73 341 61Q341 28 361 28Q373 28 392 40T433 75Q434 76 436 76Z" />
<glyph unicode="v" glyph-name="v" horiz-adv-x="428" d="M141 -13T119 20T96 102Q96 137 109 175T152 277Q156 284 171 317Q175 325 175 332Q175 342 160 342H108Q81 342 69 339T49 324T33 287Q32 284 28 284Q25 284 23 286T22 292Q37 337 48 356T74 381T120
387H208Q219 387 219 383Q219 381 216 375Q140 202 140 120Q140 77 158 53T207 29Q253 29 296 74T360 194Q370 228 370 260Q370 307 342 331Q341 332 330 340T319 366Q319 381 330 388T354 396Q376 396 386 370T397 302Q397 272 392 239Q380 163 346 106T268 18T184
-13Q141 -13 119 20Z" />
<glyph unicode="w" glyph-name="w" horiz-adv-x="616" d="M584 396T584 302Q584 266 580 239Q569 164 537 107T465 18T392 -13Q366 -13 345 6T311 59Q280 23 247 5T184 -13Q141 -13 119 20T96 102Q96 137 111 179T153 278L171 317Q175 325 175 332Q175 342 160
342H108Q81 342 69 339T49 324T33 287Q32 284 28 284Q25 284 23 286T22 292Q37 337 48 356T74 381T120 387H208Q219 387 219 383Q219 381 216 375Q190 316 171 256T146 149Q144 127 144 118Q144 74 160 50T207 25Q231 25 256 39T304 81Q292 120 292 167Q292 199
298 232Q308 298 330 345T375 392Q392 392 400 373T409 323Q409 301 405 282Q385 166 333 89Q347 58 368 42T415 25Q439 25 467 46T517 106T549 194Q554 220 554 248Q554 282 546 300T523 337Q515 346 512 352T508 366Q508 381 519 388T543 396Q584 396 584 302ZM314
233T314 199Q314 150 325 111Q365 172 377 256Q379 267 379 286Q379 310 373 323T354 337Q339 337 331 315T318 261Q314 233 314 199Z" />
<glyph unicode="x" glyph-name="x" horiz-adv-x="419" d="M379 395T393 383T408 355Q408 343 401 337T384 330Q373 330 362 339Q352 347 343 347Q317 347 295 315L227 216L265 83Q275 50 286 40T312 30Q340 30 382 75Q383 76 385 76Q389 76 391 73T391 67Q324
-9 285 -9Q265 -9 251 3T227 51L194 167L129 63Q101 18 86 5T48 -9Q29 -9 14 4T1 36Q6 56 26 56Q38 56 47 47Q57 39 67 39Q92 39 115 71L189 183L158 292Q140 356 106 356Q93 356 75 345T36 311Q35 310 33 310Q30 310 28 313T28 319Q62 358 87 376T133 395Q153
395 169 380T196 325L223 232L281 323Q309 368 324 381T361 395Q379 395 393 383Z" />
<glyph unicode="y" glyph-name="y" horiz-adv-x="440" d="M402 396T402 345Q402 261 326 109T149 -162T-19 -281Q-36 -281 -46 -272T-54 -244Q-49 -222 -19 -222Q13 -222 45 -214T101 -188Q133 -166 187 -90L188 -42Q188 146 157 250T71 354Q39 354 19 316Q18
313 13 313Q6 313 7 319Q26 358 46 376T94 395Q137 395 168 347T215 214T231 25Q231 -10 230 -28Q274 42 308 109T352 216Q357 241 357 259Q357 296 343 345Q338 362 338 368Q338 380 346 388T368 396Q402 396 402 345Z" />
<glyph unicode="z" glyph-name="z" horiz-adv-x="344" d="M348 397Q351 397 353 394T353 388L65 57Q76 64 101 64Q125 64 197 51Q255 41 270 41Q286 41 295 51T315 89Q315 90 318 90Q321 90 324 89T326 85Q312 44 303 26T284 1T255 -5Q231 -5 198 1T155 8Q93 21
56 22Q40 22 28 16T1 -7H0Q-2 -7 -4 -4T-6 1L285 334Q272 325 247 325Q232 325 209 329T164 338Q118 349 101 349Q85 349 76 338T55 298Q54 295 51 295Q48 295 46 297T44 304Q60 348 69 366T90 389T125 394Q146 393 202 381Q261 369 291 367Q307 367 319 373T346
396L348 397Z" />
<glyph unicode="{" glyph-name="braceleft" horiz-adv-x="260" d="M116 -117T94 -100T72 -34Q72 0 85 80Q98 158 98 201Q98 291 47 298Q44 298 44 304T47 311Q96 317 122 376T165 529Q180 615 196 655T240 710T319 725Q322 725 322 719T319 713Q282 713 258 686T225
607Q200 483 186 434T149 357T75 305Q112 284 126 260T141 191Q141 162 136 121T118 1Q115 -19 115 -35Q115 -69 130 -87T173 -105Q176 -105 176 -111T173 -117Q116 -117 94 -100Z" />
<glyph unicode="|" glyph-name="bar" horiz-adv-x="152" d="M32 -160T19 -160Q11 -160 5 -158T0 -151L154 731Q155 736 168 736Q176 736 182 734T188 727L33 -154Q32 -160 19 -160Z" />
<glyph unicode="}" glyph-name="braceright" horiz-adv-x="260" d="M183 725T205 708T227 642Q227 608 214 528Q201 450 201 407Q201 317 252 310Q255 310 255 304T252 297Q203 291 177 232T134 79Q119 -7 103 -47T59 -102T-20 -117Q-23 -117 -23 -111T-20 -105Q17
-105 41 -78T74 1Q99 125 113 174T150 251T224 303Q187 324 173 348T158 417Q158 446 163 487T181 607Q184 627 184 643Q184 677 169 695T126 713Q123 713 123 719T126 725Q183 725 205 708Z" />
<glyph unicode="~" glyph-name="asciitilde" horiz-adv-x="443" d="M54 154Q52 154 50 156T48 161Q104 230 159 230Q173 230 191 225T227 214Q253 204 273 199T313 194Q342 194 357 204T389 233H390Q393 233 395 231T396 226Q362 185 340 171T292 157Q273 157
256 161T213 175Q187 184 169 188T130 193Q106 193 94 186T70 169T55 154H54Z" />
<glyph unicode="&#xa0;" glyph-name="uni00A0" horiz-adv-x="234" />
<glyph unicode="&#xa1;" glyph-name="exclamdown" horiz-adv-x="220" d="M161 365T171 355T182 326Q182 309 172 299T143 289Q124 289 114 299T104 326Q104 344 114 354T143 365Q161 365 171 355ZM108 168T113 168T118 162L109 95Q92 -25 82 -109T70 -267Q70 -271
59 -275T34 -279Q20 -279 9 -275T-1 -267Q25 -188 48 -95T98 121L107 163Q108 168 113 168Z" />
<glyph unicode="&#xa2;" glyph-name="cent" horiz-adv-x="487" d="M465 446T466 444T467 433L458 332Q458 327 453 327T447 332Q447 399 412 432T313 467L230 1Q236 0 247 0Q304 0 349 35T421 140Q423 143 426 143Q429 143 431 142T433 138L401 32Q400 24 398
22T387 14Q310 -12 239 -12H228L212 -103Q212 -109 204 -109Q200 -109 197 -107T194 -101L210 -11Q118 -2 76 54T34 188Q34 212 39 240Q49 302 86 354T178 439T296 478L311 563Q311 569 319 569Q323 569 326 567T329 560L315 480H327Q361 480 398 472T458 450Q465
446 466 444ZM89 216T89 191Q89 120 120 68T212 3L294 467Q247 464 205 435T134 357T94 248Q89 216 89 191Z" />
<glyph unicode="&#xa3;" glyph-name="sterling" horiz-adv-x="388" d="M358 458T361 454T364 443L352 343Q352 339 345 339Q338 339 339 344Q340 351 340 364Q340 406 322 436T263 467Q214 467 187 436T151 360Q147 336 147 310Q147 286 151 240H257Q263 240 263
230Q263 220 257 220H153Q155 177 149 144Q142 107 126 83T83 40H201Q240 40 261 46T294 70T320 123Q322 125 325 125Q327 125 329 124T331 119Q310 48 304 12Q303 5 300 3T289 0H2Q-3 0 -3 6Q-3 11 2 13Q45 24 64 40Q91 62 99 110Q105 146 105 173Q105 185 104
199T102 220H56Q50 220 50 230Q50 240 56 240H99Q98 247 97 261T96 286Q96 305 101 337Q113 407 162 443T273 480Q315 480 351 462Q358 458 361 454Z" />
<glyph unicode="&#xa4;" glyph-name="currency" horiz-adv-x="373" d="M299 293Q319 265 319 227Q319 192 306 162T268 110L303 62L275 37L242 91Q201 65 157 65Q117 65 92 87L43 37L28 58L76 104Q56 133 56 177Q56 214 70 244T109 295L74 344L102 367L136 313Q174
335 214 335Q256 335 283 310L338 364L352 344L299 293ZM270 201T270 217Q270 261 251 290T194 319Q161 319 138 294T105 220Q102 202 102 182Q102 139 120 110T174 81Q208 81 233 108T267 184Q270 201 270 217Z" />
<glyph unicode="&#xa5;" glyph-name="yen" horiz-adv-x="429" d="M475 468T475 462T471 456Q411 456 344 365L242 227L240 213H336Q342 213 342 203Q342 193 336 193H92Q86 193 86 203Q86 213 92 213H194L195 220L126 386Q110 425 94 440T48 456Q44 456 44 462T48
468Q58 468 78 466L103 465Q130 465 170 467L211 468Q214 468 214 462T211 456Q167 456 167 432Q167 423 171 415L242 246L327 368Q353 404 353 429Q353 442 346 449T324 456Q320 456 320 462T324 468L361 467Q389 465 412 465Q426 465 444 467L471 468Q475 468
475 462ZM331 153T331 143Q331 133 325 133H226L216 80Q212 54 212 48Q212 26 226 19T283 12Q287 12 287 6T283 0Q255 0 240 1L180 2L121 1Q104 0 77 0Q74 0 74 6T77 12Q112 12 130 17T157 37T171 82L179 133H83Q77 133 77 143Q77 153 83 153H325Q331 153 331 143Z"
/>
<glyph unicode="&#xa6;" glyph-name="brokenbar" horiz-adv-x="152" d="M123 351T110 351Q103 351 96 353T90 360L154 731Q155 736 168 736Q176 736 182 734T188 727L123 357Q123 351 110 351ZM31 -163T19 -163Q11 -163 5 -161T-1 -154L63 216Q63 222 76 222Q84
222 91 220T97 213L32 -158Q31 -163 19 -163Z" />
<glyph unicode="&#xa7;" glyph-name="section" horiz-adv-x="386" d="M365 547T364 537L354 443Q354 441 349 441T344 443Q346 467 333 491T297 532T243 549Q216 549 196 531T168 474Q166 460 166 453Q166 419 184 396T241 343Q272 319 290 301T321 255T334 192Q334
177 331 159Q326 122 308 93T251 29Q273 0 273 -33Q273 -48 271 -56Q261 -121 217 -154T118 -188Q73 -188 42 -170Q34 -163 35 -153L44 -60Q46 -57 51 -57T55 -60Q54 -83 67 -107T103 -148T156 -165Q183 -165 203 -147T232 -90Q234 -76 234 -70Q234 -35 216 -12T158
42Q127 67 110 85T79 130T66 193Q66 207 69 225Q74 261 92 290T148 354Q125 384 125 419Q125 426 127 440Q139 504 184 538T282 572Q329 572 357 553Q365 547 364 537ZM292 144T292 159Q292 207 270 237T203 303Q169 331 155 347Q121 312 111 256Q108 238 108 223Q108
176 130 146T197 80Q230 54 245 37Q279 71 289 127Q292 144 292 159Z" />
<glyph unicode="&#xa8;" glyph-name="dieresis" horiz-adv-x="275" d="M102 481T92 491T81 519Q81 537 91 547T120 557Q139 557 149 547T159 519Q159 501 149 491T120 481Q102 481 92 491ZM250 481T240 491T229 519Q229 537 239 547T269 557Q288 557 298 547T308
519Q308 501 298 491T269 481Q250 481 240 491Z" />
<glyph unicode="&#xa9;" glyph-name="copyright" horiz-adv-x="724" d="M301 -101T234 -68T123 31T78 191Q78 279 122 349T239 458T396 497Q470 497 526 467T613 384T643 270Q643 208 611 155T524 71T402 39Q342 39 303 61T244 119T225 195Q225 246 250 284T314
343T395 364Q430 364 458 351T488 317Q488 307 480 299T462 291Q445 291 428 315Q416 332 404 340T370 349Q281 349 281 219Q281 150 316 108T430 65Q506 65 559 109T612 242Q612 305 580 358T491 443T366 474Q288 474 232 440T146 346T117 213Q117 121 161 57T269
-39T393 -71Q454 -71 497 -63T594 -26Q596 -25 598 -28T599 -33Q546 -73 492 -87T368 -101Q301 -101 234 -68Z" />
<glyph unicode="&#xaa;" glyph-name="ordfeminine" horiz-adv-x="276" d="M308 423Q311 423 314 420T316 415Q293 389 276 377T242 364Q231 364 226 370T221 390Q221 401 226 428L238 497Q207 436 168 399T94 361Q54 361 54 408Q54 457 81 510T150 598T227 633Q255
633 269 615Q278 626 281 639Q282 641 287 640T292 637L254 428Q252 414 252 409Q252 388 264 388Q272 388 281 396T306 422L308 423ZM133 389T161 414T214 479T248 557Q249 562 249 570Q249 588 239 600T209 612Q183 612 154 586T105 518T85 429Q85 389 112 389Q133
389 161 414ZM271 313T272 309T274 301Q274 288 269 288H44Q40 288 40 302Q40 313 43 313H269Q271 313 272 309Z" />
<glyph unicode="&#xab;" glyph-name="guillemotleft" horiz-adv-x="421" d="M241 364Q244 364 247 361T248 356L103 201L194 47V46Q194 43 191 40T186 40L55 189Q52 194 52 199Q52 206 58 212L240 364H241ZM389 364Q392 364 395 361T395 356L250 201L342 47V46Q342
43 339 40T333 40L202 189Q199 192 199 198Q199 206 206 212L387 364H389Z" />
<glyph unicode="&#xac;" glyph-name="logicalnot" horiz-adv-x="395" d="M364 77Q364 75 358 74T344 72Q337 72 332 73T326 76V229H34Q32 229 31 235T29 249Q29 256 30 261T33 267H364V77Z" />
<glyph unicode="&#xad;" glyph-name="uni00AD" horiz-adv-x="305" d="M30 167T29 175T27 192Q27 210 30 211L280 257Q284 258 284 237Q284 216 280 215L32 168Q30 167 29 175Z" />
<glyph unicode="&#xae;" glyph-name="registered" horiz-adv-x="765" d="M523 725T587 688T685 588T720 451Q720 365 678 293T566 180T413 138Q341 138 274 172T163 273T120 430Q120 513 164 580T282 686T439 725Q523 725 587 688ZM512 167T569 198T657 287T689
423Q689 500 652 564T551 665T408 702Q330 702 274 668T189 577T159 453Q159 363 201 298T307 200T437 167Q512 167 569 198ZM586 285T585 281T582 277H509Q499 277 481 317T434 440Q409 434 374 436L356 333L354 313Q354 298 364 294T402 289Q403 289 403 286Q403
283 402 281T400 277L327 278L256 277Q255 277 255 279Q255 282 256 285T258 289Q283 289 294 292T311 303T320 333L359 549Q361 563 361 567Q361 583 351 588T311 593Q310 593 310 595Q310 598 311 601T313 605L385 604Q398 604 428 606L468 607Q546 607 546 556Q546
547 545 542Q540 513 522 490T475 453Q501 377 513 347T541 301T584 285Q586 285 585 281ZM407 451T418 451Q454 451 475 466T503 518Q505 534 505 540Q505 594 449 594Q429 594 419 592T403 579T393 546L377 455Q407 451 418 451Z" />
<glyph unicode="&#xaf;" glyph-name="overscore" horiz-adv-x="333" d="M97 480T96 484T94 493Q94 506 99 506H339Q344 506 344 493Q344 480 339 480H99Q97 480 96 484Z" />
<glyph unicode="&#xb0;" glyph-name="degree" horiz-adv-x="299" d="M127 373T98 406T68 486Q68 502 71 515Q81 562 124 596T226 630Q282 630 310 598T339 519Q339 504 336 489Q324 438 282 406T184 373Q127 373 98 406ZM238 385T257 409T287 482Q293 515 293
540Q293 580 276 599T221 619Q175 619 153 593T120 518Q114 491 114 466Q114 385 193 385Q238 385 257 409Z" />
<glyph unicode="&#xb1;" glyph-name="plusminus" horiz-adv-x="398" d="M32 234T31 240T29 254Q29 260 30 265T33 271H180V418Q180 422 199 422Q218 422 218 418V271H364Q366 271 367 266T369 253Q369 246 368 240T364 234H218V88Q218 86 212 85T198 83Q191 83
186 84T180 87V234H34Q32 234 31 240ZM366 35T367 30T369 18Q369 12 368 7T364 1H34Q32 1 31 6T29 19Q29 25 30 30T33 35H364Q366 35 367 30Z" />
<glyph unicode="&#xb2;" glyph-name="uni00B2" horiz-adv-x="227" d="M86 436T131 490Q174 544 199 582T231 654Q232 658 232 666Q232 686 222 697T194 709Q172 709 153 692T122 648Q122 646 118 646Q115 646 112 647T110 652Q145 729 209 729Q239 729 254 713T269
671Q269 661 268 655Q263 628 239 596T170 514Q119 459 105 435Q105 434 107 434Q169 434 189 437T216 448T240 493Q242 496 245 496Q248 496 250 495T252 490L236 406Q236 403 233 403H76Q74 403 73 405T74 411Q86 436 131 490Z" />
<glyph unicode="&#xb3;" glyph-name="uni00B3" horiz-adv-x="227" d="M258 627T238 605T189 572Q248 557 248 507Q248 482 235 456T197 414T140 397Q106 397 90 416T70 468Q69 472 75 472T82 469Q90 413 138 413Q164 413 182 430T207 485Q209 499 209 505Q209
536 193 550T154 565Q152 565 152 571T154 577Q174 577 191 592T217 628T227 665Q227 684 216 696T187 709Q167 709 148 693T118 652Q117 650 115 650Q112 650 110 651T108 655Q122 688 146 708T204 729Q233 729 248 713T264 669Q264 659 263 654Q258 627 238 605Z"
/>
<glyph unicode="&#xb4;" glyph-name="acute" horiz-adv-x="212" d="M118 470T113 472T109 476L207 716Q209 720 223 724T250 730T261 727L119 473Q118 470 113 472Z" />
<glyph unicode="&#xb6;" glyph-name="paragraph" horiz-adv-x="594" d="M233 -193T218 -181T206 -153Q208 -139 218 -131T239 -123Q251 -123 256 -128T266 -145Q271 -157 277 -163T299 -170Q320 -170 333 -156T356 -105T380 8L401 125Q365 122 322 122Q219 122
148 170T76 324Q76 353 82 386Q105 505 185 566T386 628Q414 628 445 625Q511 622 519 622Q538 622 572 624L619 625Q624 625 624 619T619 613Q580 613 555 592T522 532L439 55Q416 -74 373 -133T262 -193Q233 -193 218 -181Z" />
<glyph unicode="&#xb7;" glyph-name="middot" horiz-adv-x="198" d="M80 161T70 171T59 200Q59 217 69 227T98 237Q117 237 127 227T137 200Q137 182 127 172T98 161Q80 161 70 171Z" />
<glyph unicode="&#xb8;" glyph-name="cedilla" horiz-adv-x="196" d="M-20 -275T-34 -266T-49 -239Q-49 -233 -48 -230Q-47 -222 -40 -217T-23 -212Q-13 -212 -8 -217T5 -235Q11 -246 15 -251T28 -256Q58 -256 67 -215Q71 -184 33 -138Q15 -117 15 -92Q15 -75
23 -60L53 0H64Q48 -37 48 -56Q48 -79 68 -104Q84 -125 92 -142T100 -176Q100 -184 99 -188Q95 -219 68 -247T0 -275Q-20 -275 -34 -266Z" />
<glyph unicode="&#xb9;" glyph-name="uni00B9" horiz-adv-x="236" d="M79 403T79 408T83 414Q113 414 126 418T145 435T158 483L179 601Q180 607 181 613T184 626Q190 666 190 670Q190 684 180 684Q171 684 122 662H120Q116 662 115 666T117 673L226 728H228Q231
728 232 726T233 721L192 483Q191 476 189 463T186 442Q186 424 197 419T239 414Q242 414 242 409T239 403Q219 403 207 404L164 405L117 404Q104 403 83 403Q79 403 79 408Z" />
<glyph unicode="&#xba;" glyph-name="ordmasculine" horiz-adv-x="269" d="M112 359T89 389T65 466Q65 482 68 498Q75 540 98 570T151 615T209 630Q251 630 273 599T296 521Q296 513 294 495Q287 458 265 427T213 377T151 359Q112 359 89 389ZM201 377T225 402T258
477Q261 497 261 513Q261 558 242 585T188 613Q156 613 133 589T103 517Q99 489 99 478Q99 433 118 405T170 377Q201 377 225 402ZM47 288T46 292T44 301Q44 305 45 309T48 313H269Q271 313 272 309T274 301Q274 288 269 288H49Q47 288 46 292Z" />
<glyph unicode="&#xbb;" glyph-name="guillemotright" horiz-adv-x="421" d="M35 37Q32 37 29 40T28 46L173 200L82 354V355Q82 358 85 361T90 361L221 212Q224 208 224 202Q224 195 218 189L36 37H35ZM182 37Q179 37 176 40T175 46L320 200L229 354V355Q229 358
232 361T237 361L368 212Q371 208 371 202Q371 195 365 189L184 37H182Z" />
<glyph unicode="&#xbc;" glyph-name="onequarter" horiz-adv-x="546" d="M201 309T189 310L146 311L99 310Q86 309 65 309Q61 309 61 314T65 320Q95 320 108 324T127 341T140 389L161 507Q162 513 163 519T166 532Q172 572 172 576Q172 590 162 590Q153 590 104
568H102Q98 568 97 572T99 579L208 634H210Q213 634 214 632T215 627L174 389Q173 382 171 369T168 348Q168 330 179 325T221 320Q224 320 224 315T221 309Q201 309 189 310ZM466 626T468 626Q474 626 481 622T487 614L149 -2Q149 -3 147 -3Q142 -3 134 1T127 7L465
625Q466 626 468 626ZM508 114T508 110Q508 103 506 95T502 87L462 90L453 41L451 25Q451 16 458 13T488 10Q493 10 493 4T488 -2Q474 -2 466 -1L435 0L395 -1Q385 -2 366 -2Q362 -2 362 4T366 10Q399 10 409 15T423 41L432 91Q370 93 318 93Q317 93 316 95T317
99L495 324Q497 326 500 325T502 320L465 112L507 114Q508 114 508 110ZM391 108T435 110L461 263L354 112Q350 108 356 108Q391 108 435 110Z" />
<glyph unicode="&#xbd;" glyph-name="onehalf" horiz-adv-x="560" d="M61 309T61 314T65 320Q95 320 108 324T127 341T140 389L161 507Q162 513 163 519T166 532Q172 572 172 576Q172 590 162 590Q153 590 104 568H102Q98 568 97 572T99 579L208 634H210Q213 634
214 632T215 627L174 389Q173 382 171 369T168 348Q168 330 179 325T221 320Q224 320 224 315T221 309Q201 309 189 310L146 311L99 310Q86 309 65 309Q61 309 61 314ZM149 -3T147 -3Q142 -3 134 1T127 7L465 625Q466 626 468 626Q474 626 481 622T487 614L149
-2Q149 -3 147 -3ZM349 33T394 87Q437 141 462 179T494 251Q495 255 495 263Q495 283 485 294T457 306Q435 306 416 289T385 245Q385 243 381 243Q378 243 375 244T373 249Q408 326 472 326Q502 326 517 310T532 268Q532 258 531 252Q526 225 502 193T433 111Q382
56 368 32Q368 31 370 31Q432 31 452 34T479 45T503 90Q505 93 508 93Q511 93 513 92T515 87L499 3Q499 0 496 0H339Q337 0 336 2T337 8Q349 33 394 87Z" />
<glyph unicode="&#xbe;" glyph-name="threequarters" horiz-adv-x="537" d="M230 388T217 362T179 320T122 303Q88 303 72 322T52 374Q51 378 57 378T64 375Q72 319 120 319Q146 319 164 336T189 391Q191 405 191 411Q191 442 175 456T136 471Q134 471 134 477T136
483Q156 483 173 498T199 534T209 571Q209 590 198 602T169 615Q149 615 130 599T100 558Q99 556 97 556Q94 556 92 557T90 561Q104 594 128 614T186 635Q215 635 230 619T246 575Q246 565 245 560Q240 533 220 511T171 478Q230 463 230 413Q230 388 217 362ZM457
626T459 626Q465 626 472 622T478 614L140 -2Q140 -3 138 -3Q133 -3 125 1T118 7L456 625Q457 626 459 626ZM499 114T499 110Q499 103 497 95T493 87L453 90L444 41L442 25Q442 16 449 13T479 10Q484 10 484 4T479 -2Q465 -2 457 -1L426 0L386 -1Q376 -2 357 -2Q353
-2 353 4T357 10Q390 10 400 15T414 41L423 91Q361 93 309 93Q308 93 307 95T308 99L486 324Q488 326 491 325T493 320L456 112L498 114Q499 114 499 110ZM382 108T426 110L452 263L345 112Q341 108 347 108Q382 108 426 110Z" />
<glyph unicode="&#xbf;" glyph-name="questiondown" horiz-adv-x="298" d="M225 361T235 351T246 322Q246 305 236 295T207 285Q188 285 178 295T168 322Q168 340 178 350T207 361Q225 361 235 351ZM185 131T185 94Q185 66 181 40Q176 9 160 -11T112 -57Q80 -83
61 -106T35 -167Q32 -181 32 -193Q32 -226 50 -244T101 -263Q130 -263 142 -250T163 -215Q169 -198 177 -188T199 -177Q212 -177 218 -186T222 -208Q218 -235 180 -255T94 -275Q44 -275 14 -251T-17 -182Q-17 -169 -14 -155Q-6 -115 16 -89T59 -45T86 -22Q125 12
142 39T165 102Q169 118 169 159Q169 163 174 163T179 159Q185 131 185 94Z" />
<glyph unicode="&#xc0;" glyph-name="Agrave" horiz-adv-x="599" d="M257 757T269 764T298 778T319 782Q359 759 403 734T491 689Q493 688 493 685Q493 682 491 680T487 679Q374 729 264 756Q257 757 269 764ZM565 12T565 6T561 0Q546 0 516 2Q482 4 462 4Q443
4 411 2Q381 0 367 0Q364 0 364 6T367 12Q407 12 421 21T436 57Q436 64 434 84L404 287H213L129 133Q96 74 96 46Q96 26 111 19T158 12Q162 12 162 6T157 0Q146 0 114 2Q78 4 58 4Q37 4 9 2Q-19 0 -34 0Q-38 0 -38 6T-34 12Q32 12 94 120L382 635Q384 638 389 638Q398
638 400 633L483 84Q487 54 493 40T515 19T561 12Q565 12 565 6ZM223 305H401L363 559L223 305Z" />
<glyph unicode="&#xc1;" glyph-name="Aacute" horiz-adv-x="599" d="M290 678Q286 678 285 682T286 689Q326 707 400 749L458 781Q462 783 478 778T507 765T513 756Q395 726 291 678H290ZM565 12T565 6T561 0Q546 0 516 2Q482 4 462 4Q443 4 411 2Q381 0 367 0Q364
0 364 6T367 12Q407 12 421 21T436 57Q436 64 434 84L404 287H213L129 133Q96 74 96 46Q96 26 111 19T158 12Q162 12 162 6T157 0Q146 0 114 2Q78 4 58 4Q37 4 9 2Q-19 0 -34 0Q-38 0 -38 6T-34 12Q32 12 94 120L382 635Q384 638 389 638Q398 638 400 633L483 84Q487
54 493 40T515 19T561 12Q565 12 565 6ZM223 305H401L363 559L223 305Z" />
<glyph unicode="&#xc2;" glyph-name="Acircumflex" horiz-adv-x="599" d="M305 660Q302 660 300 662T300 667L405 759Q410 764 414 764Q420 764 423 759L495 667V666Q495 663 493 661T488 660L405 722L306 660H305ZM565 12T565 6T561 0Q546 0 516 2Q482 4 462
4Q443 4 411 2Q381 0 367 0Q364 0 364 6T367 12Q407 12 421 21T436 57Q436 64 434 84L404 287H213L129 133Q96 74 96 46Q96 26 111 19T158 12Q162 12 162 6T157 0Q146 0 114 2Q78 4 58 4Q37 4 9 2Q-19 0 -34 0Q-38 0 -38 6T-34 12Q32 12 94 120L382 635Q384 638
389 638Q398 638 400 633L483 84Q487 54 493 40T515 19T561 12Q565 12 565 6ZM223 305H401L363 559L223 305Z" />
<glyph unicode="&#xc3;" glyph-name="Atilde" horiz-adv-x="599" d="M282 721Q279 721 277 723T277 728Q293 750 315 767T361 785Q375 785 392 781T413 775Q457 761 487 761Q504 761 514 768T536 788H537Q540 788 542 786T543 781Q517 747 500 735T465 723Q450
723 434 726T402 735Q386 740 368 744T333 748Q317 748 309 743T294 731T284 721H282ZM565 12T565 6T561 0Q546 0 516 2Q482 4 462 4Q443 4 411 2Q381 0 367 0Q364 0 364 6T367 12Q407 12 421 21T436 57Q436 64 434 84L404 287H213L129 133Q96 74 96 46Q96 26 111
19T158 12Q162 12 162 6T157 0Q146 0 114 2Q78 4 58 4Q37 4 9 2Q-19 0 -34 0Q-38 0 -38 6T-34 12Q32 12 94 120L382 635Q384 638 389 638Q398 638 400 633L483 84Q487 54 493 40T515 19T561 12Q565 12 565 6ZM223 305H401L363 559L223 305Z" />
<glyph unicode="&#xc4;" glyph-name="Adieresis" horiz-adv-x="599" d="M307 720T296 730T285 758Q285 776 296 786T325 796Q344 796 354 786T364 758Q364 740 354 730T325 720Q307 720 296 730ZM482 720T472 730T461 758Q461 776 471 786T501 796Q519 796 529
786T539 758Q539 740 529 730T501 720Q482 720 472 730ZM565 12T565 6T561 0Q546 0 516 2Q482 4 462 4Q443 4 411 2Q381 0 367 0Q364 0 364 6T367 12Q407 12 421 21T436 57Q436 64 434 84L404 287H213L129 133Q96 74 96 46Q96 26 111 19T158 12Q162 12 162 6T157
0Q146 0 114 2Q78 4 58 4Q37 4 9 2Q-19 0 -34 0Q-38 0 -38 6T-34 12Q32 12 94 120L382 635Q384 638 389 638Q398 638 400 633L483 84Q487 54 493 40T515 19T561 12Q565 12 565 6ZM223 305H401L363 559L223 305Z" />
<glyph unicode="&#xc5;" glyph-name="Aring" horiz-adv-x="599" d="M363 674T344 697T325 754Q325 790 350 810T405 831Q435 831 456 808T477 751Q477 716 453 695T396 674Q363 674 344 697ZM359 821T359 774Q359 740 374 712T411 683Q442 683 442 734Q442 769
425 795T386 821Q359 821 359 774ZM565 12T565 6T561 0Q546 0 516 2Q482 4 462 4Q443 4 411 2Q381 0 367 0Q364 0 364 6T367 12Q407 12 421 21T436 57Q436 64 434 84L404 287H213L129 133Q96 74 96 46Q96 26 111 19T158 12Q162 12 162 6T157 0Q146 0 114 2Q78 4
58 4Q37 4 9 2Q-19 0 -34 0Q-38 0 -38 6T-34 12Q32 12 94 120L382 635Q384 638 389 638Q398 638 400 633L483 84Q487 54 493 40T515 19T561 12Q565 12 565 6ZM223 305H401L363 559L223 305Z" />
<glyph unicode="&#xc6;" glyph-name="AE" horiz-adv-x="768" d="M763 625T764 623T765 616L756 557Q753 542 751 526T746 494Q745 491 740 491T735 495Q737 505 737 524Q737 565 717 588T658 611H615Q569 611 547 606T516 587T503 543L477 335H598Q638 335 657
351T683 406Q683 409 687 409Q690 409 692 408T694 404L686 359L680 325L665 235Q665 234 661 234Q654 234 654 237Q657 254 657 267Q657 294 642 305T591 316H475L446 85Q444 63 444 56Q444 33 457 26T511 18H595Q631 18 663 53T712 147Q713 150 718 149T723 145Q701
68 692 15Q690 6 687 3T676 0H303Q299 0 299 6T303 12Q339 12 357 17T383 37T396 81L426 316H272L125 123Q83 67 83 42Q83 12 145 12Q149 12 149 6T145 0Q129 0 99 2Q65 4 40 4Q17 4 -13 2Q-39 0 -56 0Q-61 0 -61 6T-56 12Q-17 12 16 36T104 132L439 574Q454 596
454 602Q454 609 440 611T387 613Q383 613 383 619T387 625H758Q763 625 764 623ZM287 335H429L458 560L287 335Z" />
<glyph unicode="&#xc7;" glyph-name="Ccedilla" horiz-adv-x="585" d="M583 594T584 590T585 575L577 470Q576 466 571 466T566 470Q561 547 517 581T396 615Q330 615 274 582T181 487T129 346Q122 305 122 263Q122 190 145 131T211 37T311 -1V0H322V-1V-1Q382
-1 436 37T530 149Q532 151 533 151Q536 151 538 149T540 145L510 39Q506 26 504 22T492 15Q404 -13 316 -13Q306 -37 306 -56Q306 -79 326 -104Q342 -125 350 -142T358 -176Q358 -184 357 -188Q353 -219 326 -247T258 -275Q238 -275 224 -266T209 -239Q209 -233
210 -230Q211 -222 218 -217T235 -212Q245 -212 250 -217T263 -235Q269 -246 273 -251T286 -256Q316 -256 325 -215Q329 -184 291 -138Q273 -117 273 -92Q273 -75 281 -60L305 -13Q179 -10 120 63T61 243Q61 284 68 319Q84 410 140 482T274 595T433 636Q475 636
514 626T577 599Q583 594 584 590Z" />
<glyph unicode="&#xc8;" glyph-name="Egrave" horiz-adv-x="510" d="M230 757T245 764T279 778T303 782Q319 770 327 763Q392 713 429 689Q431 687 431 686Q431 683 429 681T423 679Q333 728 237 756Q230 757 245 764ZM511 625T509 616L500 557Q497 542 495 526T490
494Q489 490 483 491T478 495Q481 513 481 529Q481 567 464 589T416 611H317Q284 611 269 606T245 587T232 543L195 335H343Q381 335 398 350T421 404Q421 407 427 407Q429 407 431 406T433 402Q428 372 425 360L419 325L413 286L405 234Q404 230 398 230T393 235Q397
261 397 268Q397 294 383 305T336 316H192L151 85Q148 67 148 55Q148 33 161 26T213 18H344Q377 18 407 54T454 147Q455 150 460 149T465 145Q448 91 435 15Q433 7 430 4T419 0H15Q13 0 13 6T15 12Q49 12 65 17T89 36T103 81L185 544Q188 562 188 575Q188 598 174
605T122 613Q119 613 119 619T122 625H503Q511 625 509 616Z" />
<glyph unicode="&#xc9;" glyph-name="Eacute" horiz-adv-x="510" d="M279 678Q275 678 274 682T276 689Q322 710 398 754L448 782Q452 784 468 778T497 765T503 756Q441 741 390 723T281 679L279 678ZM511 625T509 616L500 557Q497 542 495 526T490 494Q489 490
483 491T478 495Q481 513 481 529Q481 567 464 589T416 611H317Q284 611 269 606T245 587T232 543L195 335H343Q381 335 398 350T421 404Q421 407 427 407Q429 407 431 406T433 402Q428 372 425 360L419 325L413 286L405 234Q404 230 398 230T393 235Q397 261 397
268Q397 294 383 305T336 316H192L151 85Q148 67 148 55Q148 33 161 26T213 18H344Q377 18 407 54T454 147Q455 150 460 149T465 145Q448 91 435 15Q433 7 430 4T419 0H15Q13 0 13 6T15 12Q49 12 65 17T89 36T103 81L185 544Q188 562 188 575Q188 598 174 605T122
613Q119 613 119 619T122 625H503Q511 625 509 616Z" />
<glyph unicode="&#xca;" glyph-name="Ecircumflex" horiz-adv-x="510" d="M248 660Q245 660 243 662T243 667L348 759Q353 764 357 764Q363 764 366 759L438 667V666Q438 663 436 661T431 660L348 722L249 660H248ZM511 625T509 616L500 557Q497 542 495 526T490
494Q489 490 483 491T478 495Q481 513 481 529Q481 567 464 589T416 611H317Q284 611 269 606T245 587T232 543L195 335H343Q381 335 398 350T421 404Q421 407 427 407Q429 407 431 406T433 402Q428 372 425 360L419 325L413 286L405 234Q404 230 398 230T393 235Q397
261 397 268Q397 294 383 305T336 316H192L151 85Q148 67 148 55Q148 33 161 26T213 18H344Q377 18 407 54T454 147Q455 150 460 149T465 145Q448 91 435 15Q433 7 430 4T419 0H15Q13 0 13 6T15 12Q49 12 65 17T89 36T103 81L185 544Q188 562 188 575Q188 598 174
605T122 613Q119 613 119 619T122 625H503Q511 625 509 616Z" />
<glyph unicode="&#xcb;" glyph-name="Edieresis" horiz-adv-x="510" d="M262 720T252 730T241 758Q241 776 251 786T280 796Q299 796 309 786T319 758Q319 740 309 730T280 720Q262 720 252 730ZM410 720T400 730T389 758Q389 776 399 786T429 796Q448 796 458
786T468 758Q468 740 458 730T429 720Q410 720 400 730ZM511 625T509 616L500 557Q497 542 495 526T490 494Q489 490 483 491T478 495Q481 513 481 529Q481 567 464 589T416 611H317Q284 611 269 606T245 587T232 543L195 335H343Q381 335 398 350T421 404Q421
407 427 407Q429 407 431 406T433 402Q428 372 425 360L419 325L413 286L405 234Q404 230 398 230T393 235Q397 261 397 268Q397 294 383 305T336 316H192L151 85Q148 67 148 55Q148 33 161 26T213 18H344Q377 18 407 54T454 147Q455 150 460 149T465 145Q448 91
435 15Q433 7 430 4T419 0H15Q13 0 13 6T15 12Q49 12 65 17T89 36T103 81L185 544Q188 562 188 575Q188 598 174 605T122 613Q119 613 119 619T122 625H503Q511 625 509 616Z" />
<glyph unicode="&#xcc;" glyph-name="Igrave" horiz-adv-x="301" d="M225 728T129 756Q122 757 137 764T171 778T195 782Q211 770 219 763Q284 713 321 689Q323 687 323 686Q323 683 321 681T315 679Q225 728 129 756ZM16 0T16 6T19 12Q52 12 68 17T93 36T106
81L188 544Q192 568 192 575Q192 598 178 605T124 613Q121 613 121 619T124 625L165 624Q201 622 222 622Q249 622 285 624L324 625Q326 625 326 619T324 613Q291 613 275 607T250 587T236 542L154 81Q151 62 151 50Q151 27 165 20T219 12Q221 12 221 6T219 0Q194
0 179 1L118 2L61 1Q46 0 19 0Q16 0 16 6Z" />
<glyph unicode="&#xcd;" glyph-name="Iacute" horiz-adv-x="301" d="M171 678Q167 678 166 682T168 689Q214 710 290 754L340 782Q344 784 360 778T389 765T395 756Q333 741 282 723T173 679L171 678ZM16 0T16 6T19 12Q52 12 68 17T93 36T106 81L188 544Q192 568
192 575Q192 598 178 605T124 613Q121 613 121 619T124 625L165 624Q201 622 222 622Q249 622 285 624L324 625Q326 625 326 619T324 613Q291 613 275 607T250 587T236 542L154 81Q151 62 151 50Q151 27 165 20T219 12Q221 12 221 6T219 0Q194 0 179 1L118 2L61
1Q46 0 19 0Q16 0 16 6Z" />
<glyph unicode="&#xce;" glyph-name="Icircumflex" horiz-adv-x="301" d="M140 660Q137 660 135 662T135 667L240 759Q245 764 249 764Q255 764 258 759L330 667V666Q330 663 328 661T323 660L240 722L141 660H140ZM16 0T16 6T19 12Q52 12 68 17T93 36T106 81L188
544Q192 568 192 575Q192 598 178 605T124 613Q121 613 121 619T124 625L165 624Q201 622 222 622Q249 622 285 624L324 625Q326 625 326 619T324 613Q291 613 275 607T250 587T236 542L154 81Q151 62 151 50Q151 27 165 20T219 12Q221 12 221 6T219 0Q194 0 179
1L118 2L61 1Q46 0 19 0Q16 0 16 6Z" />
<glyph unicode="&#xcf;" glyph-name="Idieresis" horiz-adv-x="301" d="M164 720T154 730T143 758Q143 776 153 786T183 796Q202 796 212 786T222 758Q222 740 212 730T183 720Q164 720 154 730ZM292 720T282 730T271 758Q271 776 281 786T310 796Q329 796 339
786T349 758Q349 740 339 730T310 720Q292 720 282 730ZM16 0T16 6T19 12Q52 12 68 17T93 36T106 81L188 544Q192 568 192 575Q192 598 178 605T124 613Q121 613 121 619T124 625L165 624Q201 622 222 622Q249 622 285 624L324 625Q326 625 326 619T324 613Q291
613 275 607T250 587T236 542L154 81Q151 62 151 50Q151 27 165 20T219 12Q221 12 221 6T219 0Q194 0 179 1L118 2L61 1Q46 0 19 0Q16 0 16 6Z" />
<glyph unicode="&#xd0;" glyph-name="Eth" horiz-adv-x="606" d="M410 627T468 596T558 509T589 382Q589 348 584 323Q567 226 514 152T386 37T232 -4Q207 -4 177 -1Q165 0 148 1T110 2L50 1Q36 0 11 0Q8 0 8 6T11 12Q44 12 60 17T85 36T99 81L138 302H53Q49 302
49 311Q49 320 53 320H141L181 544Q185 570 185 576Q185 598 171 605T118 613Q116 613 116 619T118 625L159 624Q197 622 219 622Q250 622 281 625Q319 627 331 627Q410 627 468 596ZM529 340T529 381Q529 485 479 549T337 614Q299 614 279 609T246 589T228 542L189
320H315Q319 320 319 311Q319 302 315 302H186L149 92Q145 68 145 61Q145 34 163 22T226 9Q297 9 358 43T462 143T522 301Q529 340 529 381Z" />
<glyph unicode="&#xd1;" glyph-name="Ntilde" horiz-adv-x="650" d="M285 697Q282 697 280 699T279 704Q295 726 317 744T363 762Q380 762 415 751Q459 737 489 737Q506 737 516 744T538 764H540Q543 764 545 762T545 757Q519 723 502 712T467 700Q452 700 436
703T404 712Q362 724 335 724Q319 724 311 719T296 707T286 697H285ZM683 625T683 619T681 613Q645 613 626 592T598 520L504 -11Q503 -14 499 -14T492 -11L207 543L196 563L117 104Q113 81 113 62Q113 35 125 24T164 12Q166 12 166 6T164 0Q144 0 134 1L90 2L49
1Q37 0 15 0Q13 0 13 6T15 12Q51 12 70 33T98 104L182 582Q157 613 124 613Q121 613 121 619T124 625L156 624Q166 623 184 623Q198 623 207 624T222 625Q228 625 231 621T238 606Q239 603 242 593T251 573L502 80L579 520Q583 543 583 562Q583 590 571 601T532
613Q530 613 530 619T532 625L562 624Q588 622 606 622Q621 622 647 624L681 625Q683 625 683 619Z" />
<glyph unicode="&#xd2;" glyph-name="Ograve" horiz-adv-x="650" d="M401 728T305 756Q298 757 313 764T347 778T371 782Q387 770 395 763Q460 713 497 689Q499 687 499 686Q499 683 497 681T491 679Q401 728 305 756ZM217 -12T167 20T91 110T65 240Q65 276 71
313Q87 406 137 479T258 594T409 636Q480 636 530 604T607 515T633 386Q633 357 626 313Q609 220 558 146T435 30T285 -12Q217 -12 167 20ZM417 14T481 77T571 260Q582 313 582 359Q582 433 556 490T482 580T368 612Q275 612 211 546T125 366Q116 318 116 274Q116
200 140 141T213 48T327 14Q417 14 481 77Z" />
<glyph unicode="&#xd3;" glyph-name="Oacute" horiz-adv-x="650" d="M347 678Q343 678 342 682T344 689Q390 710 466 754L516 782Q520 784 536 778T565 765T571 756Q509 741 458 723T349 679L347 678ZM217 -12T167 20T91 110T65 240Q65 276 71 313Q87 406 137
479T258 594T409 636Q480 636 530 604T607 515T633 386Q633 357 626 313Q609 220 558 146T435 30T285 -12Q217 -12 167 20ZM417 14T481 77T571 260Q582 313 582 359Q582 433 556 490T482 580T368 612Q275 612 211 546T125 366Q116 318 116 274Q116 200 140 141T213
48T327 14Q417 14 481 77Z" />
<glyph unicode="&#xd4;" glyph-name="Ocircumflex" horiz-adv-x="650" d="M316 660Q313 660 311 662T311 667L416 759Q421 764 425 764Q431 764 434 759L506 667V666Q506 663 504 661T499 660L416 722L317 660H316ZM217 -12T167 20T91 110T65 240Q65 276 71 313Q87
406 137 479T258 594T409 636Q480 636 530 604T607 515T633 386Q633 357 626 313Q609 220 558 146T435 30T285 -12Q217 -12 167 20ZM417 14T481 77T571 260Q582 313 582 359Q582 433 556 490T482 580T368 612Q275 612 211 546T125 366Q116 318 116 274Q116 200
140 141T213 48T327 14Q417 14 481 77Z" />
<glyph unicode="&#xd5;" glyph-name="Otilde" horiz-adv-x="650" d="M295 697Q292 697 290 699T289 704Q305 726 327 744T373 762Q390 762 425 751Q469 737 499 737Q516 737 526 744T548 764H550Q553 764 555 762T555 757Q529 723 512 712T477 700Q462 700 446
703T414 712Q372 724 345 724Q329 724 321 719T306 707T296 697H295ZM217 -12T167 20T91 110T65 240Q65 276 71 313Q87 406 137 479T258 594T409 636Q480 636 530 604T607 515T633 386Q633 357 626 313Q609 220 558 146T435 30T285 -12Q217 -12 167 20ZM417 14T481
77T571 260Q582 313 582 359Q582 433 556 490T482 580T368 612Q275 612 211 546T125 366Q116 318 116 274Q116 200 140 141T213 48T327 14Q417 14 481 77Z" />
<glyph unicode="&#xd6;" glyph-name="Odieresis" horiz-adv-x="650" d="M330 720T320 730T309 758Q309 776 319 786T348 796Q367 796 377 786T387 758Q387 740 377 730T348 720Q330 720 320 730ZM478 720T468 730T457 758Q457 776 467 786T497 796Q516 796 526
786T536 758Q536 740 526 730T497 720Q478 720 468 730ZM217 -12T167 20T91 110T65 240Q65 276 71 313Q87 406 137 479T258 594T409 636Q480 636 530 604T607 515T633 386Q633 357 626 313Q609 220 558 146T435 30T285 -12Q217 -12 167 20ZM417 14T481 77T571 260Q582
313 582 359Q582 433 556 490T482 580T368 612Q275 612 211 546T125 366Q116 318 116 274Q116 200 140 141T213 48T327 14Q417 14 481 77Z" />
<glyph unicode="&#xd7;" glyph-name="multiply" horiz-adv-x="398" d="M329 87Q331 83 318 70T302 60L199 163L95 60Q92 56 79 69T68 85L173 190L69 294Q65 296 78 309T95 320L199 216L302 319Q305 322 318 309T329 292L226 190L329 87Z" />
<glyph unicode="&#xd8;" glyph-name="Oslash" horiz-adv-x="650" d="M648 630T650 630Q654 630 659 625T662 618L590 545Q633 479 633 386Q633 357 626 313Q609 220 558 146T435 30T285 -12Q232 -12 190 8T119 65L48 -7L46 -8Q42 -8 37 -2T35 7L107 80Q64 148
64 240Q64 269 71 313Q87 406 137 479T258 594T409 636Q518 636 579 559L648 629Q648 630 650 630ZM116 318T116 274Q116 186 149 123L540 520Q513 564 469 588T368 612Q275 612 211 546T125 366Q116 318 116 274ZM582 313T582 358Q582 443 550 504L159 106Q186
62 228 38T327 14Q417 14 481 77T571 260Q582 313 582 358Z" />
<glyph unicode="&#xd9;" glyph-name="Ugrave" horiz-adv-x="618" d="M388 729T278 756Q271 757 283 764T312 778T333 782Q373 759 417 734T505 689Q507 688 507 685Q507 682 505 680T501 679Q388 729 278 756ZM567 539T567 552Q567 583 552 598T504 613Q500 613
500 619T504 625L543 624Q573 622 591 622Q608 622 636 624L671 625Q675 625 675 619T671 613Q634 613 613 590T582 519L532 233Q511 116 442 52T275 -13Q190 -13 143 34T96 166Q96 195 102 226L158 545Q161 563 161 575Q161 598 147 605T91 613Q88 613 88 619T91
625L136 624Q172 622 194 622Q221 622 259 624L298 625Q302 625 302 619T298 613Q263 613 245 607T219 586T205 540L154 258Q147 220 147 185Q147 102 186 59T296 16Q379 16 437 74T512 234L564 522Q567 539 567 552Z" />
<glyph unicode="&#xda;" glyph-name="Uacute" horiz-adv-x="618" d="M304 678Q300 678 299 682T300 689Q340 707 414 749L472 781Q476 783 492 778T521 765T527 756Q409 726 305 678H304ZM567 539T567 552Q567 583 552 598T504 613Q500 613 500 619T504 625L543
624Q573 622 591 622Q608 622 636 624L671 625Q675 625 675 619T671 613Q634 613 613 590T582 519L532 233Q511 116 442 52T275 -13Q190 -13 143 34T96 166Q96 195 102 226L158 545Q161 563 161 575Q161 598 147 605T91 613Q88 613 88 619T91 625L136 624Q172 622
194 622Q221 622 259 624L298 625Q302 625 302 619T298 613Q263 613 245 607T219 586T205 540L154 258Q147 220 147 185Q147 102 186 59T296 16Q379 16 437 74T512 234L564 522Q567 539 567 552Z" />
<glyph unicode="&#xdb;" glyph-name="Ucircumflex" horiz-adv-x="618" d="M319 660Q316 660 314 662T314 667L419 759Q424 764 428 764Q434 764 437 759L509 667V666Q509 663 507 661T502 660L419 722L320 660H319ZM567 539T567 552Q567 583 552 598T504 613Q500
613 500 619T504 625L543 624Q573 622 591 622Q608 622 636 624L671 625Q675 625 675 619T671 613Q634 613 613 590T582 519L532 233Q511 116 442 52T275 -13Q190 -13 143 34T96 166Q96 195 102 226L158 545Q161 563 161 575Q161 598 147 605T91 613Q88 613 88
619T91 625L136 624Q172 622 194 622Q221 622 259 624L298 625Q302 625 302 619T298 613Q263 613 245 607T219 586T205 540L154 258Q147 220 147 185Q147 102 186 59T296 16Q379 16 437 74T512 234L564 522Q567 539 567 552Z" />
<glyph unicode="&#xdc;" glyph-name="Udieresis" horiz-adv-x="618" d="M321 720T310 730T299 758Q299 776 310 786T339 796Q358 796 368 786T378 758Q378 740 368 730T339 720Q321 720 310 730ZM496 720T486 730T475 758Q475 776 485 786T515 796Q533 796 543
786T553 758Q553 740 543 730T515 720Q496 720 486 730ZM567 539T567 552Q567 583 552 598T504 613Q500 613 500 619T504 625L543 624Q573 622 591 622Q608 622 636 624L671 625Q675 625 675 619T671 613Q634 613 613 590T582 519L532 233Q511 116 442 52T275 -13Q190
-13 143 34T96 166Q96 195 102 226L158 545Q161 563 161 575Q161 598 147 605T91 613Q88 613 88 619T91 625L136 624Q172 622 194 622Q221 622 259 624L298 625Q302 625 302 619T298 613Q263 613 245 607T219 586T205 540L154 258Q147 220 147 185Q147 102 186
59T296 16Q379 16 437 74T512 234L564 522Q567 539 567 552Z" />
<glyph unicode="&#xdd;" glyph-name="Yacute" horiz-adv-x="527" d="M291 678Q287 678 286 682T288 689Q334 710 410 754L460 782Q464 784 480 778T509 765T515 756Q453 741 402 723T293 679L291 678ZM603 625T603 619T599 613Q536 613 469 523L310 308L270 81Q266
55 266 49Q266 27 280 20T333 12Q337 12 337 6T333 0Q307 0 293 1L235 2L174 1Q160 0 135 0Q131 0 131 6T135 12Q168 12 185 17T210 37T223 81L261 301L159 542Q142 581 124 597T76 613Q72 613 72 619T76 625L106 624Q128 622 138 622Q164 622 206 624L253 625Q255
625 255 621Q255 618 254 616T250 613Q224 613 213 608T201 592Q201 585 206 573L308 327L449 524Q478 565 478 586Q478 613 437 613Q434 613 434 619T437 625L476 624Q508 622 532 622Q547 622 567 624L599 625Q603 625 603 619Z" />
<glyph unicode="&#xde;" glyph-name="Thorn" horiz-adv-x="531" d="M403 499T459 462T515 352Q515 331 511 312Q499 250 453 207T346 143T229 122Q205 122 188 126Q187 126 187 129Q187 132 188 136T193 139Q207 136 222 136Q271 136 319 153T404 206T451 292Q456
312 456 337Q456 406 410 446T295 487Q250 487 217 480L147 81Q144 63 144 50Q144 34 151 26T178 15T234 12Q236 12 236 6T234 0Q202 0 184 1L109 2L52 1Q37 0 12 0Q9 0 9 6T12 12Q45 12 61 17T86 36T101 81L182 544Q186 561 186 576Q186 598 172 605T119 613Q117
613 117 619T119 625L159 624Q195 622 216 622Q248 622 294 624L342 625Q344 625 344 619T342 613Q294 613 273 609T243 590T228 542L219 492Q262 499 317 499Q403 499 459 462Z" />
<glyph unicode="&#xdf;" glyph-name="germandbls" horiz-adv-x="441" d="M-83 -275T-97 -265T-111 -238Q-111 -225 -102 -216T-77 -207Q-64 -207 -58 -214T-47 -234Q-42 -246 -37 -251T-22 -257Q-9 -257 -1 -242T16 -184T40 -47L120 448Q142 579 200 652T339 726Q385
726 404 703T424 647Q424 639 422 627Q416 594 398 566T349 502Q323 472 309 451T290 406Q288 392 288 387Q288 358 300 332T337 268Q362 228 375 201T388 141Q388 133 386 119Q382 89 365 59T319 9T255 -11Q222 -11 205 4T188 40Q188 52 195 60T216 68Q227 68
232 62T244 43Q251 27 259 19T284 11Q308 11 324 30T345 85Q346 91 346 102Q346 134 334 160T297 225Q273 261 261 286T249 342Q249 358 251 366Q257 397 270 419T309 473Q335 505 350 531T373 595Q376 613 376 635Q376 712 318 712Q266 712 224 641T163 446L88
-21Q72 -120 55 -174T12 -251T-54 -275Q-83 -275 -97 -265Z" />
<glyph unicode="&#xe0;" glyph-name="agrave" horiz-adv-x="432" d="M254 727Q253 732 264 731T288 725T300 716V476Q300 474 296 473T291 475L254 727ZM409 78T411 78Q414 78 416 75T416 69Q381 29 355 10T304 -9Q288 -9 281 0T274 32Q274 53 280 89L299 200Q252
104 193 46T80 -13Q20 -13 20 61Q20 69 22 91Q32 162 74 234T174 352T282 399Q301 399 318 392T346 371Q365 388 368 407Q369 410 375 409T380 406L322 89Q319 73 319 61Q319 28 338 28Q361 28 408 77Q409 78 411 78ZM146 30T189 68T266 165T313 283Q315 291 315
305Q315 333 299 350T253 367Q216 367 177 335T109 248T69 127Q66 106 66 89Q66 30 109 30Q146 30 189 68Z" />
<glyph unicode="&#xe1;" glyph-name="aacute" horiz-adv-x="432" d="M370 720T384 724T411 730T422 727L280 473Q279 470 274 472T270 476L368 716Q370 720 384 724ZM409 78T411 78Q414 78 416 75T416 69Q381 29 355 10T304 -9Q288 -9 281 0T274 32Q274 53 280
89L299 200Q252 104 193 46T80 -13Q20 -13 20 61Q20 69 22 91Q32 162 74 234T174 352T282 399Q301 399 318 392T346 371Q365 388 368 407Q369 410 375 409T380 406L322 89Q319 73 319 61Q319 28 338 28Q361 28 408 77Q409 78 411 78ZM146 30T189 68T266 165T313
283Q315 291 315 305Q315 333 299 350T253 367Q216 367 177 335T109 248T69 127Q66 106 66 89Q66 30 109 30Q146 30 189 68Z" />
<glyph unicode="&#xe2;" glyph-name="acircumflex" horiz-adv-x="432" d="M235 472T232 472Q229 472 227 474T225 477L327 726Q328 731 337 731Q345 731 345 726L359 477Q359 475 354 475T348 476L321 642L235 474Q235 472 232 472ZM409 78T411 78Q414 78 416
75T416 69Q381 29 355 10T304 -9Q288 -9 281 0T274 32Q274 53 280 89L299 200Q252 104 193 46T80 -13Q20 -13 20 61Q20 69 22 91Q32 162 74 234T174 352T282 399Q301 399 318 392T346 371Q365 388 368 407Q369 410 375 409T380 406L322 89Q319 73 319 61Q319 28
338 28Q361 28 408 77Q409 78 411 78ZM146 30T189 68T266 165T313 283Q315 291 315 305Q315 333 299 350T253 367Q216 367 177 335T109 248T69 127Q66 106 66 89Q66 30 109 30Q146 30 189 68Z" />
<glyph unicode="&#xe3;" glyph-name="atilde" horiz-adv-x="432" d="M422 549Q425 549 427 547T428 542Q402 508 385 496T350 484Q335 484 319 487T287 496Q271 501 253 505T218 509Q202 509 194 504T179 492T169 482H167Q164 482 162 484T162 489Q178 511 200
528T246 546Q260 546 277 542T298 536Q342 522 372 522Q389 522 399 529T421 549H422ZM409 78T411 78Q414 78 416 75T416 69Q381 29 355 10T304 -9Q288 -9 281 0T274 32Q274 53 280 89L299 200Q252 104 193 46T80 -13Q20 -13 20 61Q20 69 22 91Q32 162 74 234T174
352T282 399Q301 399 318 392T346 371Q365 388 368 407Q369 410 375 409T380 406L322 89Q319 73 319 61Q319 28 338 28Q361 28 408 77Q409 78 411 78ZM146 30T189 68T266 165T313 283Q315 291 315 305Q315 333 299 350T253 367Q216 367 177 335T109 248T69 127Q66
106 66 89Q66 30 109 30Q146 30 189 68Z" />
<glyph unicode="&#xe4;" glyph-name="adieresis" horiz-adv-x="432" d="M204 481T194 491T183 519Q183 537 193 547T222 557Q241 557 251 547T261 519Q261 501 251 491T222 481Q204 481 194 491ZM352 481T342 491T331 519Q331 537 341 547T371 557Q390 557 400
547T410 519Q410 501 400 491T371 481Q352 481 342 491ZM409 78T411 78Q414 78 416 75T416 69Q381 29 355 10T304 -9Q288 -9 281 0T274 32Q274 53 280 89L299 200Q252 104 193 46T80 -13Q20 -13 20 61Q20 69 22 91Q32 162 74 234T174 352T282 399Q301 399 318 392T346
371Q365 388 368 407Q369 410 375 409T380 406L322 89Q319 73 319 61Q319 28 338 28Q361 28 408 77Q409 78 411 78ZM146 30T189 68T266 165T313 283Q315 291 315 305Q315 333 299 350T253 367Q216 367 177 335T109 248T69 127Q66 106 66 89Q66 30 109 30Q146 30
189 68Z" />
<glyph unicode="&#xe5;" glyph-name="aring" horiz-adv-x="432" d="M258 468T239 491T219 547Q219 583 244 604T300 625Q330 625 350 602T371 545Q371 510 347 489T290 468Q258 468 239 491ZM268 615T261 603T253 567Q253 533 268 505T306 477Q336 477 336 527Q336
562 319 588T280 615Q268 615 261 603ZM409 78T411 78Q414 78 416 75T416 69Q381 29 355 10T304 -9Q288 -9 281 0T274 32Q274 53 280 89L299 200Q252 104 193 46T80 -13Q20 -13 20 61Q20 69 22 91Q32 162 74 234T174 352T282 399Q301 399 318 392T346 371Q365 388
368 407Q369 410 375 409T380 406L322 89Q319 73 319 61Q319 28 338 28Q361 28 408 77Q409 78 411 78ZM146 30T189 68T266 165T313 283Q315 291 315 305Q315 333 299 350T253 367Q216 367 177 335T109 248T69 127Q66 106 66 89Q66 30 109 30Q146 30 189 68Z" />
<glyph unicode="&#xe6;" glyph-name="ae" horiz-adv-x="529" d="M494 399T509 384T524 347Q524 309 478 278T311 212Q306 169 306 142Q306 18 380 18Q406 18 426 26T467 53H468Q471 53 474 50T475 44Q441 14 412 1T351 -12Q305 -12 280 24T255 124Q255 149 260
184Q220 94 172 41T80 -13Q20 -13 20 61Q20 69 22 91Q32 163 70 234T160 352T258 399Q284 399 303 383T325 334Q355 366 391 382T461 399Q494 399 509 384ZM471 327T471 335Q471 353 461 366T428 380Q388 380 356 337T312 225Q378 245 421 267T470 323Q471 327
471 335ZM140 30T175 68T239 165T278 283Q280 291 280 306Q280 333 267 350T230 367Q198 367 164 335T104 248T69 127Q66 106 66 90Q66 60 76 45T109 30Q140 30 175 68Z" />
<glyph unicode="&#xe7;" glyph-name="ccedilla" horiz-adv-x="345" d="M285 399T310 383T332 342Q331 330 324 322T304 313Q282 313 271 342Q267 356 253 367T215 379Q164 379 133 338T89 232Q82 192 82 166Q82 101 110 60T193 18Q226 18 251 31T304 67L306 68Q309
68 311 64T312 58Q234 -10 163 -13Q152 -40 152 -56Q152 -79 172 -104Q188 -125 196 -142T204 -176Q204 -184 203 -188Q199 -219 172 -247T104 -275Q84 -275 70 -266T55 -239Q55 -233 56 -230Q57 -222 64 -217T81 -212Q91 -212 96 -217T109 -235Q115 -246 119 -251T132
-256Q162 -256 171 -215Q175 -184 137 -138Q119 -117 119 -92Q119 -75 127 -60L151 -13Q90 -11 60 33T29 142Q29 169 36 202Q49 263 82 307T160 375T248 399Q285 399 310 383Z" />
<glyph unicode="&#xe8;" glyph-name="egrave" horiz-adv-x="339" d="M207 727Q206 732 217 731T241 725T253 716V476Q253 474 249 473T244 475L207 727ZM323 325T290 297T202 247T84 215Q79 190 79 159Q79 95 107 58T187 20Q245 20 290 53H292Q295 53 297 50T297
44Q226 -12 154 -12Q92 -12 60 28T28 132Q28 155 33 185Q42 235 75 285T156 367T258 399Q289 399 306 388T323 356Q323 325 290 297ZM165 372T133 332T87 229Q161 241 208 265T264 324Q266 329 266 338Q266 356 251 364T215 372Q165 372 133 332Z" />
<glyph unicode="&#xe9;" glyph-name="eacute" horiz-adv-x="339" d="M323 720T337 724T364 730T375 727L233 473Q232 470 227 472T223 476L321 716Q323 720 337 724ZM289 399T306 388T323 356Q323 325 290 297T202 247T84 215Q79 190 79 159Q79 95 107 58T187
20Q245 20 290 53H292Q295 53 297 50T297 44Q226 -12 154 -12Q92 -12 60 28T28 132Q28 155 33 185Q42 235 75 285T156 367T258 399Q289 399 306 388ZM266 329T266 338Q266 356 251 364T215 372Q165 372 133 332T87 229Q161 241 208 265T264 324Q266 329 266 338Z"
/>
<glyph unicode="&#xea;" glyph-name="ecircumflex" horiz-adv-x="339" d="M175 473T172 473Q169 473 167 474T165 478L266 727Q269 732 277 732Q285 732 285 727L299 478Q299 475 293 475T287 477L261 643L175 474Q175 473 172 473ZM323 325T290 297T202 247T84
215Q79 190 79 159Q79 95 107 58T187 20Q245 20 290 53H292Q295 53 297 50T297 44Q226 -12 154 -12Q92 -12 60 28T28 132Q28 155 33 185Q42 235 75 285T156 367T258 399Q289 399 306 388T323 356Q323 325 290 297ZM165 372T133 332T87 229Q161 241 208 265T264
324Q266 329 266 338Q266 356 251 364T215 372Q165 372 133 332Z" />
<glyph unicode="&#xeb;" glyph-name="edieresis" horiz-adv-x="339" d="M157 481T147 491T136 519Q136 537 146 547T175 557Q194 557 204 547T214 519Q214 501 204 491T175 481Q157 481 147 491ZM343 557T353 547T363 519Q363 501 353 491T324 481Q305 481 295
491T284 519Q284 537 294 547T324 557Q343 557 353 547ZM289 399T306 388T323 356Q323 325 290 297T202 247T84 215Q79 190 79 159Q79 95 107 58T187 20Q245 20 290 53H292Q295 53 297 50T297 44Q226 -12 154 -12Q92 -12 60 28T28 132Q28 155 33 185Q42 235 75
285T156 367T258 399Q289 399 306 388ZM266 329T266 338Q266 356 251 364T215 372Q165 372 133 332T87 229Q161 241 208 265T264 324Q266 329 266 338Z" />
<glyph unicode="&#xec;" glyph-name="igrave" horiz-adv-x="247" d="M121 727Q120 732 131 731T155 725T167 716V476Q167 474 163 473T158 475L121 727ZM93 -9T85 0T77 34Q77 57 84 89L125 297Q128 314 128 325Q128 341 123 349T108 358Q96 358 77 346T36 311Q35
310 33 310Q30 310 28 313T28 319Q62 358 90 376T142 395Q159 395 166 386T174 354Q174 331 167 297L127 89Q124 73 124 60Q124 28 144 28Q156 28 175 40T215 75Q216 76 218 76Q222 76 224 73T223 67Q157 -9 110 -9Q93 -9 85 0Z" />
<glyph unicode="&#xed;" glyph-name="iacute" horiz-adv-x="247" d="M146 470T141 472T137 476L235 716Q237 720 251 724T278 730T289 727L147 473Q146 470 141 472ZM93 -9T85 0T77 34Q77 57 84 89L125 297Q128 314 128 325Q128 341 123 349T108 358Q96 358 77
346T36 311Q35 310 33 310Q30 310 28 313T28 319Q62 358 90 376T142 395Q159 395 166 386T174 354Q174 331 167 297L127 89Q124 73 124 60Q124 28 144 28Q156 28 175 40T215 75Q216 76 218 76Q222 76 224 73T223 67Q157 -9 110 -9Q93 -9 85 0Z" />
<glyph unicode="&#xee;" glyph-name="icircumflex" horiz-adv-x="247" d="M226 477Q226 475 221 475T215 476L188 642L102 474Q102 472 99 472Q96 472 94 474T92 477L194 726Q195 731 204 731Q212 731 212 726L226 477ZM93 -9T85 0T77 34Q77 57 84 89L125 297Q128
314 128 325Q128 341 123 349T108 358Q96 358 77 346T36 311Q35 310 33 310Q30 310 28 313T28 319Q62 358 90 376T142 395Q159 395 166 386T174 354Q174 331 167 297L127 89Q124 73 124 60Q124 28 144 28Q156 28 175 40T215 75Q216 76 218 76Q222 76 224 73T223
67Q157 -9 110 -9Q93 -9 85 0Z" />
<glyph unicode="&#xef;" glyph-name="idieresis" horiz-adv-x="247" d="M81 481T71 491T60 519Q60 537 70 547T100 557Q119 557 129 547T139 519Q139 501 129 491T100 481Q81 481 71 491ZM209 481T199 491T188 519Q188 537 198 547T227 557Q246 557 256 547T266
519Q266 501 256 491T227 481Q209 481 199 491ZM93 -9T85 0T77 34Q77 57 84 89L125 297Q128 314 128 325Q128 341 123 349T108 358Q96 358 77 346T36 311Q35 310 33 310Q30 310 28 313T28 319Q62 358 90 376T142 395Q159 395 166 386T174 354Q174 331 167 297L127
89Q124 73 124 60Q124 28 144 28Q156 28 175 40T215 75Q216 76 218 76Q222 76 224 73T223 67Q157 -9 110 -9Q93 -9 85 0Z" />
<glyph unicode="&#xf0;" glyph-name="eth" horiz-adv-x="401" d="M407 643Q411 643 414 635T414 626L315 579Q347 520 364 451T381 310Q381 266 373 216Q360 142 327 91T249 13T154 -13Q94 -13 61 29T28 138Q28 165 32 186Q44 255 78 303T157 375T242 399Q267
399 290 390T330 362Q319 470 275 560L140 496Q137 494 133 503T132 513L267 577Q219 669 149 712Q145 714 152 718T171 725T186 725Q256 682 306 596L406 643H407ZM231 5T268 53T323 204Q330 239 330 273Q330 326 306 353T228 381Q179 381 139 337T84 215Q79 190
79 156Q79 89 106 47T181 5Q231 5 268 53Z" />
<glyph unicode="&#xf1;" glyph-name="ntilde" horiz-adv-x="463" d="M154 482Q151 482 149 484T149 489Q165 511 187 528T233 546Q247 546 264 542T285 536Q329 522 359 522Q376 522 386 529T408 549H409Q412 549 414 547T415 542Q389 508 372 496T337 484Q322
484 306 487T274 496Q258 501 240 505T205 509Q189 509 181 504T166 492T156 482H154ZM442 79T443 79Q446 79 448 76T448 69Q413 29 387 10T336 -9Q319 -9 312 0T305 33Q305 53 311 89L340 248Q347 279 347 305Q347 365 301 365Q267 365 231 322T162 198T109 6Q108
0 101 -4T83 -8Q70 -8 66 -7T62 -2L66 19Q68 26 71 43T77 74L118 297Q121 314 121 325Q121 358 101 358Q89 358 70 346T29 311Q28 310 26 310Q23 310 21 313T21 319Q87 395 136 395Q152 395 159 386T166 354Q166 333 160 297L137 164Q173 274 223 336T329 399Q362
399 377 382T393 327Q393 307 386 267L353 89Q350 73 350 62Q350 28 371 28Q393 28 440 77Q442 79 443 79Z" />
<glyph unicode="&#xf2;" glyph-name="ograve" horiz-adv-x="396" d="M204 727Q203 732 214 731T238 725T250 716V476Q250 474 246 473T241 475L204 727ZM95 -14T62 28T29 139Q29 169 34 193Q45 250 75 297T150 372T242 399Q303 399 336 357T370 248Q370 222 364
193Q352 132 319 85T242 12T153 -14Q95 -14 62 28ZM233 11T269 48T318 149Q323 177 323 203Q323 272 295 323T213 375Q167 375 130 337T80 236Q74 209 74 180Q74 111 104 61T188 11Q233 11 269 48Z" />
<glyph unicode="&#xf3;" glyph-name="oacute" horiz-adv-x="396" d="M229 470T224 472T220 476L318 716Q320 720 334 724T361 730T372 727L230 473Q229 470 224 472ZM95 -14T62 28T29 139Q29 169 34 193Q45 250 75 297T150 372T242 399Q303 399 336 357T370 248Q370
222 364 193Q352 132 319 85T242 12T153 -14Q95 -14 62 28ZM233 11T269 48T318 149Q323 177 323 203Q323 272 295 323T213 375Q167 375 130 337T80 236Q74 209 74 180Q74 111 104 61T188 11Q233 11 269 48Z" />
<glyph unicode="&#xf4;" glyph-name="ocircumflex" horiz-adv-x="396" d="M296 478Q296 475 290 475T284 477L258 643L172 474Q172 473 169 473Q166 473 164 474T162 478L263 727Q266 732 274 732Q282 732 282 727L296 478ZM95 -14T62 28T29 139Q29 169 34 193Q45
250 75 297T150 372T242 399Q303 399 336 357T370 248Q370 222 364 193Q352 132 319 85T242 12T153 -14Q95 -14 62 28ZM233 11T269 48T318 149Q323 177 323 203Q323 272 295 323T213 375Q167 375 130 337T80 236Q74 209 74 180Q74 111 104 61T188 11Q233 11 269
48Z" />
<glyph unicode="&#xf5;" glyph-name="otilde" horiz-adv-x="396" d="M117 482Q114 482 112 484T112 489Q128 511 150 528T196 546Q210 546 227 542T248 536Q292 522 322 522Q339 522 349 529T371 549H372Q375 549 377 547T378 542Q352 508 335 496T300 484Q285
484 269 487T237 496Q221 501 203 505T168 509Q152 509 144 504T129 492T119 482H117ZM95 -14T62 28T29 139Q29 169 34 193Q45 250 75 297T150 372T242 399Q303 399 336 357T370 248Q370 222 364 193Q352 132 319 85T242 12T153 -14Q95 -14 62 28ZM233 11T269 48T318
149Q323 177 323 203Q323 272 295 323T213 375Q167 375 130 337T80 236Q74 209 74 180Q74 111 104 61T188 11Q233 11 269 48Z" />
<glyph unicode="&#xf6;" glyph-name="odieresis" horiz-adv-x="396" d="M154 481T144 491T133 519Q133 537 143 547T172 557Q191 557 201 547T211 519Q211 501 201 491T172 481Q154 481 144 491ZM302 481T292 491T281 519Q281 537 291 547T321 557Q340 557 350
547T360 519Q360 501 350 491T321 481Q302 481 292 491ZM95 -14T62 28T29 139Q29 169 34 193Q45 250 75 297T150 372T242 399Q303 399 336 357T370 248Q370 222 364 193Q352 132 319 85T242 12T153 -14Q95 -14 62 28ZM233 11T269 48T318 149Q323 177 323 203Q323
272 295 323T213 375Q167 375 130 337T80 236Q74 209 74 180Q74 111 104 61T188 11Q233 11 269 48Z" />
<glyph unicode="&#xf7;" glyph-name="divide" horiz-adv-x="384" d="M178 320T168 330T157 359Q157 376 167 386T196 396Q215 396 225 386T235 359Q235 341 225 331T196 320Q178 320 168 330ZM32 171T31 177T29 191Q29 197 30 202T33 208H364Q366 208 367 203T369
190Q369 183 368 177T364 171H34Q32 171 31 177ZM179 -11T169 -1T158 28Q158 45 168 55T198 65Q216 65 226 55T236 28Q236 10 226 0T198 -11Q179 -11 169 -1Z" />
<glyph unicode="&#xf8;" glyph-name="oslash" horiz-adv-x="408" d="M388 399Q392 399 397 394T400 386L351 335Q370 295 370 248Q370 222 364 193Q352 132 319 85T242 12T153 -14Q92 -14 58 33L13 -14L11 -15Q7 -15 2 -9T0 0L48 50Q29 85 29 138Q29 169 34 193Q45
250 75 297T150 372T242 399Q306 399 341 351L386 398L388 399ZM74 209T74 180Q74 133 89 92L301 311Q287 340 265 357T213 375Q167 375 130 337T80 236Q74 209 74 180ZM323 177T323 202Q323 250 309 292L97 73Q112 44 135 28T188 11Q233 11 269 48T318 149Q323
177 323 202Z" />
<glyph unicode="&#xf9;" glyph-name="ugrave" horiz-adv-x="462" d="M229 727Q228 732 239 731T263 725T275 716V476Q275 474 271 473T266 475L229 727ZM434 76T436 76Q439 76 441 73T441 67Q407 28 379 10T326 -9Q310 -9 303 0T296 32Q296 53 302 89L325 222Q289
112 239 50T133 -13Q100 -13 84 4T68 58Q68 81 76 119L112 297Q115 314 115 325Q115 341 110 349T95 358Q73 358 26 309Q24 307 22 307Q19 307 17 310T18 317Q53 357 79 376T130 395Q146 395 154 386T162 354Q162 335 154 297L122 138Q115 106 115 80Q115 21 161
21Q195 21 231 64T300 188T353 380Q354 386 361 390T379 394Q400 394 400 388L396 367Q394 360 391 343T385 312L344 89Q341 73 341 61Q341 28 361 28Q373 28 392 40T433 75Q434 76 436 76Z" />
<glyph unicode="&#xfa;" glyph-name="uacute" horiz-adv-x="462" d="M254 470T249 472T245 476L343 716Q345 720 359 724T386 730T397 727L255 473Q254 470 249 472ZM434 76T436 76Q439 76 441 73T441 67Q407 28 379 10T326 -9Q310 -9 303 0T296 32Q296 53 302
89L325 222Q289 112 239 50T133 -13Q100 -13 84 4T68 58Q68 81 76 119L112 297Q115 314 115 325Q115 341 110 349T95 358Q73 358 26 309Q24 307 22 307Q19 307 17 310T18 317Q53 357 79 376T130 395Q146 395 154 386T162 354Q162 335 154 297L122 138Q115 106 115
80Q115 21 161 21Q195 21 231 64T300 188T353 380Q354 386 361 390T379 394Q400 394 400 388L396 367Q394 360 391 343T385 312L344 89Q341 73 341 61Q341 28 361 28Q373 28 392 40T433 75Q434 76 436 76Z" />
<glyph unicode="&#xfb;" glyph-name="ucircumflex" horiz-adv-x="462" d="M197 473T194 473Q191 473 189 474T187 478L288 727Q291 732 299 732Q307 732 307 727L321 478Q321 475 315 475T309 477L283 643L197 474Q197 473 194 473ZM434 76T436 76Q439 76 441
73T441 67Q407 28 379 10T326 -9Q310 -9 303 0T296 32Q296 53 302 89L325 222Q289 112 239 50T133 -13Q100 -13 84 4T68 58Q68 81 76 119L112 297Q115 314 115 325Q115 341 110 349T95 358Q73 358 26 309Q24 307 22 307Q19 307 17 310T18 317Q53 357 79 376T130
395Q146 395 154 386T162 354Q162 335 154 297L122 138Q115 106 115 80Q115 21 161 21Q195 21 231 64T300 188T353 380Q354 386 361 390T379 394Q400 394 400 388L396 367Q394 360 391 343T385 312L344 89Q341 73 341 61Q341 28 361 28Q373 28 392 40T433 75Q434
76 436 76Z" />
<glyph unicode="&#xfc;" glyph-name="udieresis" horiz-adv-x="462" d="M179 481T169 491T158 519Q158 537 168 547T197 557Q216 557 226 547T236 519Q236 501 226 491T197 481Q179 481 169 491ZM327 481T317 491T306 519Q306 537 316 547T346 557Q365 557 375
547T385 519Q385 501 375 491T346 481Q327 481 317 491ZM434 76T436 76Q439 76 441 73T441 67Q407 28 379 10T326 -9Q310 -9 303 0T296 32Q296 53 302 89L325 222Q289 112 239 50T133 -13Q100 -13 84 4T68 58Q68 81 76 119L112 297Q115 314 115 325Q115 341 110
349T95 358Q73 358 26 309Q24 307 22 307Q19 307 17 310T18 317Q53 357 79 376T130 395Q146 395 154 386T162 354Q162 335 154 297L122 138Q115 106 115 80Q115 21 161 21Q195 21 231 64T300 188T353 380Q354 386 361 390T379 394Q400 394 400 388L396 367Q394
360 391 343T385 312L344 89Q341 73 341 61Q341 28 361 28Q373 28 392 40T433 75Q434 76 436 76Z" />
<glyph unicode="&#xfd;" glyph-name="yacute" horiz-adv-x="440" d="M235 470T230 472T226 476L324 716Q326 720 340 724T367 730T378 727L236 473Q235 470 230 472ZM402 396T402 345Q402 261 326 109T149 -162T-19 -281Q-36 -281 -46 -272T-54 -244Q-49 -222
-19 -222Q13 -222 45 -214T101 -188Q133 -166 187 -90L188 -42Q188 146 157 250T71 354Q39 354 19 316Q18 313 13 313Q6 313 7 319Q26 358 46 376T94 395Q137 395 168 347T215 214T231 25Q231 -10 230 -28Q274 42 308 109T352 216Q357 241 357 259Q357 296 343
345Q338 362 338 368Q338 380 346 388T368 396Q402 396 402 345Z" />
<glyph unicode="&#xfe;" glyph-name="thorn" horiz-adv-x="408" d="M339 393T364 364T389 286Q389 269 386 251Q370 174 329 117T238 29T145 -1Q111 -1 83 3L51 -178Q48 -195 48 -205Q48 -224 57 -232T86 -241Q91 -241 111 -239H112Q115 -239 116 -244T113 -250L-55
-275Q-59 -276 -60 -270T-57 -263Q-33 -259 -23 -253T-6 -233T6 -185L92 289L48 255H47Q44 255 41 258T41 263Q67 286 96 309L154 627Q156 641 156 645Q156 670 134 670Q115 670 83 654H81Q77 654 76 658T78 665L201 725H203Q207 725 210 722T212 717L145 342Q226
393 296 393Q339 393 364 364ZM334 248T334 261Q334 305 315 332T256 360Q205 360 141 321L91 44Q127 27 171 27Q239 27 276 75T330 220Q334 248 334 261Z" />
<glyph unicode="&#xff;" glyph-name="ydieresis" horiz-adv-x="440" d="M160 481T150 491T139 519Q139 537 149 547T178 557Q197 557 207 547T217 519Q217 501 207 491T178 481Q160 481 150 491ZM308 481T298 491T287 519Q287 537 297 547T327 557Q346 557 356
547T366 519Q366 501 356 491T327 481Q308 481 298 491ZM402 396T402 345Q402 261 326 109T149 -162T-19 -281Q-36 -281 -46 -272T-54 -244Q-49 -222 -19 -222Q13 -222 45 -214T101 -188Q133 -166 187 -90L188 -42Q188 146 157 250T71 354Q39 354 19 316Q18 313
13 313Q6 313 7 319Q26 358 46 376T94 395Q137 395 168 347T215 214T231 25Q231 -10 230 -28Q274 42 308 109T352 216Q357 241 357 259Q357 296 343 345Q338 362 338 368Q338 380 346 388T368 396Q402 396 402 345Z" />
<glyph unicode="&#x2013;" glyph-name="endash" horiz-adv-x="515" d="M32 171T31 177T29 191Q29 197 30 202T33 208H481Q483 208 484 203T486 190Q486 183 485 177T481 171H34Q32 171 31 177Z" />
<glyph unicode="&#x2014;" glyph-name="emdash" horiz-adv-x="830" d="M32 171T31 177T29 191Q29 197 30 202T33 208H796Q798 208 799 203T801 190Q801 183 800 177T796 171H34Q32 171 31 177Z" />
<glyph unicode="&#x2018;" glyph-name="quoteleft" horiz-adv-x="154" d="M177 634T179 634Q182 634 184 630T183 624Q145 596 124 568T98 508Q97 502 97 492Q97 479 100 471Q109 482 127 482Q144 482 153 473T163 447Q163 430 152 421T119 411Q96 411 82 427T68
472Q68 518 95 555T176 633Q177 634 179 634Z" />
<glyph unicode="&#x2019;" glyph-name="quoteright" horiz-adv-x="143" d="M157 634T171 618T185 573Q185 527 158 490T77 412Q76 411 74 411Q71 411 69 415T70 421Q108 449 129 477T155 537Q156 543 156 553Q156 567 153 574Q144 563 126 563Q109 563 100 572T90
598Q90 615 101 624T134 634Q157 634 171 618Z" />
<glyph unicode="&#x201a;" glyph-name="quotesinglbase" horiz-adv-x="143" d="M57 63T71 47T85 2Q85 -44 58 -81T-23 -159Q-24 -160 -26 -160Q-29 -160 -31 -156T-30 -150Q8 -122 29 -94T55 -34Q56 -28 56 -18Q56 -5 53 3Q44 -8 26 -8Q9 -8 0 1T-10 27Q-10 44
1 53T34 63Q57 63 71 47Z" />
<glyph unicode="&#x201c;" glyph-name="quotedblleft" horiz-adv-x="282" d="M182 634T184 634Q187 634 189 630T188 624Q150 596 129 568T103 508Q102 502 102 492Q102 479 105 471Q114 482 132 482Q149 482 158 473T168 447Q168 430 157 421T124 411Q101 411
87 427T73 472Q73 518 100 555T181 633Q182 634 184 634ZM322 634T324 634Q327 634 329 630T328 624Q290 596 269 568T243 508Q242 502 242 492Q242 479 245 471Q254 482 272 482Q289 482 298 473T308 447Q308 430 297 421T264 411Q241 411 227 427T213 472Q213
518 240 555T321 633Q322 634 324 634Z" />
<glyph unicode="&#x201d;" glyph-name="quotedblright" horiz-adv-x="283" d="M158 634T172 618T186 573Q186 527 159 490T78 412Q77 411 75 411Q72 411 70 415T71 421Q109 449 130 477T156 537Q157 543 157 553Q157 567 154 574Q145 563 127 563Q110 563 101
572T91 598Q91 615 102 624T135 634Q158 634 172 618ZM298 634T312 618T326 573Q326 527 299 490T218 412Q217 411 215 411Q212 411 210 415T211 421Q249 449 270 477T296 537Q297 543 297 553Q297 567 294 574Q285 563 267 563Q250 563 241 572T231 598Q231 615
242 624T275 634Q298 634 312 618Z" />
<glyph unicode="&#x201e;" glyph-name="quotedblbase" horiz-adv-x="283" d="M57 63T71 47T85 2Q85 -44 58 -81T-23 -159Q-24 -160 -26 -160Q-29 -160 -31 -156T-30 -150Q8 -122 29 -94T55 -34Q56 -28 56 -18Q56 -5 53 3Q44 -8 26 -8Q9 -8 0 1T-10 27Q-10 44 1
53T34 63Q57 63 71 47ZM197 63T211 47T225 2Q225 -44 198 -81T117 -159Q116 -160 114 -160Q111 -160 109 -156T110 -150Q148 -122 169 -94T195 -34Q196 -28 196 -18Q196 -5 193 3Q184 -8 166 -8Q149 -8 140 1T130 27Q130 44 141 53T174 63Q197 63 211 47Z" />
<glyph unicode="&#x2022;" glyph-name="bullet" horiz-adv-x="298" d="M121 156T94 182T67 248Q67 286 94 312T159 339Q197 339 223 313T250 248Q250 209 224 183T159 156Q121 156 94 182Z" />
<glyph unicode="&#x2039;" glyph-name="guilsinglleft" horiz-adv-x="275" d="M241 364Q244 364 247 361T248 356L103 201L194 47V46Q194 43 191 40T186 40L55 189Q52 194 52 199Q52 206 58 212L240 364H241Z" />
<glyph unicode="&#x203a;" glyph-name="guilsinglright" horiz-adv-x="274" d="M36 37Q33 37 30 40T29 46L174 200L83 354V355Q83 358 86 361T91 361L222 212Q225 208 225 202Q225 195 219 189L37 37H36Z" />
</font>
</defs>
</svg>
